<?xml version="1.0" standalone="no"?>
<!DOCTYPE svg PUBLIC "-//W3C//DTD SVG 1.1//EN" "http://www.w3.org/Graphics/SVG/1.1/DTD/svg11.dtd" >
<!--
2020-3-9: Created with FontForge (http://fontforge.org)
-->
<svg xmlns="http://www.w3.org/2000/svg" xmlns:xlink="http://www.w3.org/1999/xlink" version="1.1">
<metadata>
Created by FontForge 20170731 at Mon Mar  9 07:23:36 2020
 By root

</metadata>
<defs>
<font id="Flaticon" horiz-adv-x="512" >
  <font-face 
    font-family="Flaticon"
    font-weight="400"
    font-stretch="normal"
    units-per-em="512"
    panose-1="2 0 5 3 0 0 0 0 0 0"
    ascent="448"
    descent="-64"
    bbox="-0.012207 -64.0166 512.027 448.012"
    underline-thickness="25.6"
    underline-position="-51.2"
    unicode-range="U+0020-F147"
  />
    <missing-glyph />
    <glyph glyph-name="space" unicode=" " horiz-adv-x="200" 
 />
    <glyph glyph-name="044-home-1" unicode="&#xf12b;" 
d="M500.855 123.439c12.2441 -9.24902 14.6816 -26.7363 5.43555 -38.9814c-5.46484 -7.23535 -13.8057 -11.0459 -22.2422 -11.0459c-5.8418 -0.000976562 -11.7285 1.82812 -16.7393 5.61133l-4.50293 3.40137v-56.1914c0 -4.14941 -3.3623 -7.51172 -7.5127 -7.51172
c-4.14941 0 -7.51172 3.3623 -7.51172 7.51172v67.5381l-180.677 136.463c-6.53711 4.9375 -15.6719 4.9375 -22.21 0l-180.677 -136.462v-142.748h142.701v88.8027c0 27.0625 22.0166 49.0791 49.0791 49.0791c27.0635 0 49.0801 -22.0166 49.0801 -49.0791v-88.8027
h142.701v45.1611c0 4.14941 3.3623 7.51172 7.51172 7.51172c4.15039 0 7.5127 -3.3623 7.5127 -7.51172v-52.6738c0 -4.14844 -3.3623 -7.51172 -7.5127 -7.51172h-398.586c-4.15039 0 -7.5127 3.36328 -7.5127 7.51172v138.913l-4.50195 -3.40039
c-12.2461 -9.25 -29.7334 -6.8125 -38.9814 5.43359c-9.24805 12.2451 -6.81055 29.7324 5.43359 38.9814l63.1426 47.6904c3.31152 2.50098 8.02148 1.84473 10.5215 -1.4668c2.50098 -3.31055 1.84473 -8.02148 -1.46582 -10.5215l-63.1426 -47.6904
c-5.63379 -4.25684 -6.75586 -12.3037 -2.5 -17.9385c4.25391 -5.63379 12.2998 -6.75684 17.9375 -2.49902l200.202 151.208c11.8701 8.9668 28.4492 8.9668 40.3213 0l200.203 -151.21c5.63379 -4.25195 13.6807 -3.13379 17.9375 2.50098
c4.25488 5.63379 3.13281 13.6807 -2.50098 17.9375l-224.695 169.708c-6.53809 4.93848 -15.6729 4.93848 -22.21 0l-137.576 -103.908c-3.31152 -2.50195 -8.02148 -1.8457 -10.5225 1.46582s-1.84375 8.02246 1.4668 10.5225l137.576 103.908
c11.8701 8.9668 28.4492 8.9668 40.3213 0l95.5264 -72.1494v26.665c0 4.15039 3.3623 7.5127 7.51172 7.5127h48.0781c4.14941 0 7.51172 -3.3623 7.51172 -7.5127v-74.3242zM386.711 240.15v-30.5l33.0527 -24.9648v55.4648h-33.0527zM221.944 39.8271v-88.8027h68.1104
v88.8027c0 18.7783 -15.2773 34.0547 -34.0557 34.0547s-34.0547 -15.2764 -34.0547 -34.0547zM118.592 88.9062v0.000976562h39.4365c9.83887 0 17.8428 -8.00488 17.8428 -17.8428v-39.4365c0 -9.83984 -8.00488 -17.8438 -17.8428 -17.8438h-39.4365
c-9.83789 0 -17.8418 8.00586 -17.8418 17.8438v39.4355c0 9.83887 8.00391 17.8428 17.8418 17.8428zM160.846 71.0645c0 1.55469 -1.2627 2.81738 -2.81738 2.81836h-39.4365c-1.55371 0 -2.81738 -1.26367 -2.81738 -2.81836v-39.4365
c0 -1.55469 1.2627 -2.81934 2.81738 -2.81934h39.4355c1.55469 0 2.81836 1.26465 2.81836 2.81934v39.4365zM354.974 88.9062v0.000976562h39.4365c9.83887 0 17.8428 -8.00488 17.8428 -17.8428v-39.4365c0 -9.83984 -8.00488 -17.8438 -17.8428 -17.8438h-39.4365
c-9.83887 0 -17.8428 8.00586 -17.8428 17.8438v39.4355c0 9.83887 8.00488 17.8428 17.8428 17.8428zM397.228 71.0645c0 1.55469 -1.2627 2.81738 -2.81738 2.81836h-39.4365c-1.55469 0 -2.81836 -1.26367 -2.81836 -2.81836v-39.4365
c0 -1.55469 1.26367 -2.81934 2.81836 -2.81934h39.4355c1.55469 0 2.81836 1.26465 2.81836 2.81934v39.4365zM336.392 311.139c-28.5459 27.5537 -41.043 55.9941 -37.1387 84.5273c2.14648 15.6855 8.58789 28.8232 18.6279 37.9932
c8.93555 8.16211 20.3887 13.041 33.1191 14.1104c20.1152 1.70508 38.8818 -6.15918 49.5049 -19.6055c10.624 13.4473 29.377 21.3086 49.5059 19.6055c12.7295 -1.07031 24.1826 -5.94922 33.1182 -14.1084c10.042 -9.16992 16.4824 -22.3076 18.6279 -37.9912
c4.24023 -31.002 -11.6279 -62.9854 -45.8877 -92.4971c-25.0889 -21.6113 -50.9893 -34.3125 -52.0801 -34.8418c-2.05664 -0.999023 -4.5127 -0.999023 -6.56934 0c-0.701172 0.338867 -17.3926 8.51074 -36.9629 22.8516
c-3.34766 2.45215 -4.07129 7.15234 -1.61914 10.499c2.45215 3.34863 7.15332 4.06934 10.499 1.62012c13.5273 -9.91309 25.7236 -16.7666 31.3594 -19.7617c17.0186 9.09277 94.0986 53.6211 86.374 110.091c-3.11719 22.7812 -17.3662 37.4238 -38.1191 39.168
c-18.877 1.60059 -36.5459 -8.12598 -41.0781 -22.5908c-0.970703 -3.09668 -3.92285 -5.26562 -7.16895 -5.26562c-3.24512 0 -6.19824 2.16895 -7.16895 5.26562c-4.5332 14.4678 -22.1973 24.1816 -41.0781 22.5908c-20.752 -1.74414 -35.0029 -16.3857 -38.1191 -39.168
c-3.21875 -23.5234 7.78027 -47.6406 32.6875 -71.6816c2.98438 -2.88086 3.07031 -7.63672 0.188477 -10.6221c-2.88086 -2.98438 -7.63574 -3.07031 -10.6221 -0.188477zM372.584 374.45c0 -7.75977 -6.31348 -14.0723 -14.0732 -14.0723
c-7.75879 0 -14.0723 6.3125 -14.0723 14.0723c0 7.75879 6.31348 14.0713 14.0723 14.0713c7.75977 0 14.0732 -6.3125 14.0732 -14.0713zM456.117 374.45c0 -7.75977 -6.31348 -14.0713 -14.0723 -14.0723c-7.75977 0 -14.0723 6.3125 -14.0723 14.0723
c0 7.75879 6.3125 14.0713 14.0723 14.0713c7.75879 0 14.0723 -6.3125 14.0723 -14.0713zM400.505 327.035c-12.3984 0 -23.2178 7.94531 -26.9209 19.7715c-1.23926 3.95898 0.963867 8.17383 4.92383 9.41406c3.95898 1.24023 8.17383 -0.964844 9.41406 -4.92285
c1.73047 -5.52637 6.78809 -9.23926 12.584 -9.23926c5.79785 0 10.8535 3.71191 12.584 9.23828c1.23926 3.95898 5.45215 6.16309 9.41406 4.92383c3.95898 -1.24023 6.16309 -5.4541 4.92383 -9.41309c-3.70312 -11.8262 -14.5225 -19.7725 -26.9229 -19.7725z" />
    <glyph glyph-name="045-profit" unicode="&#xf12c;" 
d="M40 168v96h224v-96h-224zM56 248v-64h192v64h-192zM200 -24v112h64v-112h-64zM216 72v-80h32v80h-32zM120 -24v48h64v-48h-64zM136 8v-16h32v16h-32zM40 -24v48h64v-48h-64zM56 8v-16h32v16h-32zM120 40v48h64v-48h-64zM136 72v-16h32v16h-32zM40 40v48h64v-48h-64z
M56 72v-16h32v16h-32zM120 104v48h64v-48h-64zM136 136v-16h32v16h-32zM200 104v48h64v-48h-64zM216 136v-16h32v16h-32zM40 104v48h64v-48h-64zM56 136v-16h32v16h-32zM352 264h-24v-24c0 -13.2324 10.7676 -24 24 -24c22.0557 0 40 -17.9443 40 -40v-40h-32v-16h-16
v16.8076c-18.2324 3.7207 -32 19.8809 -32 39.1924h16c0 -13.2324 10.7676 -24 24 -24h24v24c0 13.2324 -10.7676 24 -24 24c-22.0557 0 -40 17.9443 -40 40v40h32v16h16v-16.8076c18.2324 -3.7207 32 -19.8809 32 -39.1924h-16c0 13.2324 -10.7676 24 -24 24z
M429.848 337.336c45.3848 -27.8643 74.1523 -77.4316 74.1523 -129.336c0 -83.8164 -68.1836 -152 -152 -152c-19.4561 0 -38.2236 3.63965 -56 10.7119v-82.7119c0 -22.0557 -17.9443 -40 -40 -40h-208c-22.0557 0 -40 17.9443 -40 40v272c0 22.0557 17.9443 40 40 40
h181.256c12.1201 16.5195 27.4238 30.6084 44.9043 41.3281l-10.9277 9.36816c-24.9287 21.3594 -39.2324 52.4561 -39.2324 85.3037v8h8c18.4717 0 28.1035 -10.2725 35.832 -18.5283c7.05566 -7.52734 12.6318 -13.4717 24.1602 -13.4717
c11.5273 0 17.1035 5.94434 24.1514 13.4717c7.73633 8.25586 17.3604 18.5283 35.8242 18.5283c18.4727 0 28.1045 -10.2725 35.8486 -18.5283c7.04785 -7.52734 12.6318 -13.4717 24.168 -13.4717c11.5352 0 17.1191 5.94434 24.1758 13.4717
c7.73633 8.25586 17.3682 18.5283 35.8398 18.5283h8v-8c0 -32.8477 -14.3037 -63.9443 -39.248 -85.3115zM240.448 422.696c2.38379 -24.6719 14.1836 -47.5605 33.2002 -63.8564l17.3115 -14.8398h122.08l17.3037 14.832c19.0244 16.2959 30.8242 39.1836 33.208 63.8643
c-6.32812 -2.15234 -10.6396 -6.75195 -15.7275 -12.168c-7.73633 -8.25586 -17.3682 -18.5283 -35.8398 -18.5283c-18.4727 0 -28.1045 10.2725 -35.8486 18.5283c-7.04785 7.52734 -12.6318 13.4717 -24.168 13.4717c-11.5195 0 -17.0957 -5.94434 -24.1436 -13.4717
c-7.73633 -8.25586 -17.3682 -18.5283 -35.832 -18.5283s-28.0957 10.2725 -35.8242 18.5283c-5.08008 5.41602 -9.3916 10.0156 -15.7197 12.168zM280 -16v272c0 13.2324 -10.7676 24 -24 24h-208c-13.2324 0 -24 -10.7676 -24 -24v-272c0 -13.2324 10.7676 -24 24 -24h208
c13.2324 0 24 10.7676 24 24zM352 72c74.9922 0 136 61.0078 136 136c0 49.1602 -28.9678 96.0479 -73.9678 120h-124.064c-15.2559 -8.12012 -28.9033 -19.04 -40.248 -32h6.28027c22.0557 0 40 -17.9443 40 -40v-171.76c17.624 -8 36.4082 -12.2402 56 -12.2402z
M425.536 134.464c2.17578 2.16016 4.21582 4.39258 6.14355 6.69629l12.2324 -10.2959c-2.23242 -2.64844 -4.57617 -5.22461 -7.07227 -7.71191c-3.35156 -3.36035 -6.91992 -6.53613 -10.5918 -9.4248l-9.9043 12.5605c3.17578 2.50391 6.27246 5.25586 9.19238 8.17578z
M436.928 292.776c41.1279 -41.1201 46.8643 -105.641 13.5684 -153.36l-13.1279 9.16016c28.8555 41.3438 23.8799 97.2559 -11.832 132.96l-0.736328 0.727539l11.1602 11.4727zM216 216h16v-16h-16v16zM184 216h16v-16h-16v16zM152 216h16v-16h-16v16z" />
    <glyph glyph-name="016-pdf" unicode="&#xf10f;" 
d="M444.875 338.208c2 -2 3.125 -4.70801 3.125 -7.54102v-352c0 -23.5322 -19.1348 -42.667 -42.666 -42.667h-298.667c-23.5322 0 -42.667 19.1348 -42.667 42.666v426.667c0 23.5322 19.1348 42.667 42.666 42.667h224c2.83398 0 5.54199 -1.125 7.54199 -3.125z
M341.333 411.583v-48.917c0 -11.7598 9.57324 -21.333 21.333 -21.333h48.917zM426.667 -21.333v341.333h-64c-23.5322 0 -42.667 19.1348 -42.667 42.666v64h-213.333c-11.7598 0 -21.333 -9.57324 -21.333 -21.333v-426.666c0 -11.7598 9.57324 -21.333 21.333 -21.333
h298.667c11.7598 0 21.333 9.57324 21.333 21.333zM310.385 134.865c15.1055 2.53125 26.6465 3.80176 30.9482 3.80273c13.8535 0 42.667 0 42.667 -25.2188c0 -12.8232 -5.55176 -28.1152 -32 -28.1152c-9.55176 0 -29.2715 13.1357 -47.125 26.8652
c-22.2812 -4.15625 -50.5107 -10.792 -73.2188 -19.75c-21.875 -44.625 -51.8232 -71.1152 -71.6562 -71.1152c-15.3848 0 -32 9.46777 -32 24.7598c0 21.0625 22.5 31.7295 56.5635 47.8545c7.46875 3.54199 15.5205 7.35352 24 11.5938
c2.35352 1.17676 4.79199 2.31152 7.30176 3.42676c3.08398 6.89648 6 14.3545 8.6875 22.4062c5.58301 16.7812 10.5527 31.667 14.7812 44.5732c-17.2812 22.458 -26 41.7803 -26 57.6982c0 36.1045 17.4062 43.6875 32 43.6875c19.208 0 32 -7.26074 32 -42.667
c0 -8.33398 -4.30176 -23.9688 -14.1152 -54.292c6.29102 -7.5 13.5312 -15.375 21.6562 -23.5c6.25 -6.25 15.6348 -14.2393 25.5098 -22.0098zM160 42.667c6.05176 0 21.8965 10.7695 37.917 34c-1.42676 -0.676758 -2.83398 -1.33398 -4.21875 -1.99023
c-21.8135 -10.333 -44.3652 -21.0195 -44.3652 -28.583c0.448242 -0.551758 4.57324 -3.42676 10.667 -3.42676zM234.667 233.646c0 -8.34473 4.46777 -19.3965 12.8438 -32.293c5.49023 17.5635 8.49023 28.8135 8.49023 33.3135c0 21.333 -3.125 21.333 -10.667 21.333
c-3.72852 0 -10.667 0 -10.667 -22.3535zM242.844 119c13.375 4.24023 27.3643 7.79199 40.5127 10.6572c-6.60547 5.63477 -11.5635 10.1348 -13.5635 12.1348c-5.11523 5.11426 -9.88574 10.1045 -14.3125 14.9795c-3.17773 -9.60449 -6.74023 -20.2715 -10.6982 -32.1465
c-0.625 -1.89648 -1.27148 -3.77148 -1.93848 -5.625zM362.667 113.448c-1.10352 2.34375 -5.57324 3.88477 -21.334 3.88477c-1.25 0 -3.46875 -0.166992 -6.47949 -0.5c8.29297 -5.64648 15.0117 -9.60449 17.918 -10.2295
c9.89551 0.0634766 9.89551 2.05273 9.89551 6.84473z" />
    <glyph glyph-name="046-next" unicode="&#xf12d;" 
d="M389.468 210.274c9.97559 -9.94824 9.97559 -26.5732 0.0253906 -36.5469l-230.244 -230.167c-10.1025 -10.0781 -26.4971 -10.0781 -36.5996 0c-10.1035 10.1025 -10.1035 26.4707 0 36.5488l211.956 211.904l-211.981 211.905
c-10.1035 10.0771 -10.1035 26.4453 0 36.5234c10.1279 10.0771 26.4971 10.0771 36.5996 0z" />
    <glyph glyph-name="047-arrows" unicode="&#xf12e;" 
d="M430.644 280.896c7.22168 -7.22168 7.22168 -18.5908 0 -25.8125c-6.97754 -6.97754 -18.5908 -6.97754 -25.5518 0l-130.884 130.883v-431.912c0 -10.0674 -8.00195 -18.0703 -18.0693 -18.0703c-10.0684 0 -18.3311 8.00293 -18.3311 18.0703v431.929
l-130.622 -130.883c-7.22168 -6.97754 -18.8516 -6.97754 -25.8125 0c-7.22168 7.22168 -7.22168 18.5908 0 25.8115l161.867 161.868c6.97754 6.97754 18.5908 6.97754 25.5518 0z" />
    <glyph glyph-name="032-view" unicode="&#xf11f;" 
d="M508.746 201.959c4.33789 -5.93066 4.33789 -13.9873 0 -19.9229c-4.57422 -6.25098 -113.558 -153.201 -252.749 -153.201c-139.19 0 -248.179 146.949 -252.748 153.206c-4.33203 5.93652 -4.33203 13.9873 0 19.9238c4.56934 6.25098 113.558 153.2 252.748 153.2
c139.191 0 248.175 -146.949 252.749 -153.206zM255.997 62.5928c102.75 0 191.365 97.4834 217.618 129.396c-26.2988 31.9023 -115.094 129.419 -217.618 129.419c-102.749 0 -191.364 -97.4824 -217.617 -129.396c26.2871 -31.8857 115.089 -129.419 217.617 -129.419z
M255.997 293.274c55.8428 0 101.275 -45.4326 101.275 -101.275c0 -55.8418 -45.4326 -101.274 -101.275 -101.274c-55.8418 0 -101.274 45.4326 -101.274 101.274c0 55.8428 45.4326 101.275 101.274 101.275zM255.997 124.483c37.2305 0 67.5166 30.2871 67.5166 67.5156
c0 37.2295 -30.2871 67.5166 -67.5166 67.5166c-37.2285 0 -67.5156 -30.2871 -67.5156 -67.5166c0 -37.2285 30.2861 -67.5156 67.5156 -67.5156z" />
    <glyph glyph-name="026-invoice" unicode="&#xf119;" 
d="M437.413 434.758c8.61719 -3.83301 14.126 -12.4287 14.0078 -21.8604v-441.79c0.0410156 -5.89062 -2.10156 -11.5869 -6.0166 -15.9883c-8.73633 -9.82617 -23.7842 -10.709 -33.6104 -1.97168l-33.3057 29.4619l-45.2822 -40.4941
c-9.09766 -8.14648 -22.8682 -8.14648 -31.9658 0l-45.2402 40.457l-45.2334 -40.4619c-9.09473 -8.14746 -22.8643 -8.14746 -31.959 0l-45.2705 40.4961l-33.2744 -29.4629c-4.40137 -3.91211 -10.0947 -6.05859 -15.9824 -6.02344
c-13.168 0.0771484 -23.7793 10.8154 -23.7012 23.9824v441.795c-0.0410156 5.88672 2.10156 11.5801 6.0127 15.9805c8.73535 9.82715 23.7842 10.7129 33.6113 1.97754l33.3057 -29.4619l45.2822 40.4961c9.09668 8.14746 22.8672 8.14746 31.9648 0l45.2441 -40.457
l45.2334 40.457c9.09473 8.14746 22.8643 8.14746 31.959 0l45.2705 -40.4961l33.2744 29.4629c7.00977 6.31348 17.1055 7.84863 25.6758 3.90137v0zM394.324 0.569336l33.2383 -29.4561l-0.120117 138.088v303.696l-33.1836 -29.4629
c-9.0625 -8.05664 -22.7305 -8.01953 -31.748 0.0859375l-45.2891 40.4941l-45.2393 -40.457c-9.0957 -8.14746 -22.8662 -8.14746 -31.9629 0l-45.2344 40.457l-45.2695 -40.4941c-9.05273 -8.10645 -22.7441 -8.14258 -31.8398 -0.0849609l-33.2383 29.4561
l0.120117 -377.868v-63.9072l33.1836 29.4541c9.0625 8.05664 22.7305 8.01953 31.748 -0.0859375l45.2891 -40.4941l45.2393 40.457c9.0957 8.14746 22.8662 8.14746 31.9629 0l45.2344 -40.457l45.2695 40.4941c9.05273 8.10645 22.7441 8.14258 31.8398 0.0849609z
M369.647 203.991c6.62012 0 11.9893 -5.36719 11.9893 -11.9893c0 -6.62109 -5.36816 -11.9883 -11.9893 -11.9883h-227.295c-6.62109 0 -11.9893 5.36719 -11.9893 11.9883c0 6.62207 5.36816 11.9893 11.9893 11.9893h227.295zM261.746 275.926
c6.62012 0 11.9893 -5.36816 11.9893 -11.9893c0 -6.62207 -5.36719 -11.9893 -11.9893 -11.9893h-119.394c-6.62109 0 -11.9893 5.36719 -11.9893 11.9893c0 6.62109 5.36816 11.9893 11.9893 11.9893h119.394zM369.647 132.058
c6.62012 0 11.9893 -5.36816 11.9893 -11.9893s-5.36816 -11.9893 -11.9893 -11.9893h-227.295c-6.62109 0 -11.9893 5.36816 -11.9893 11.9893s5.36816 11.9893 11.9893 11.9893h227.295z" />
    <glyph glyph-name="067-user-1" unicode="&#xf142;" 
d="M255.999 358.957c42.9648 0 77.9141 -34.9502 77.9141 -77.9131c0 -42.9639 -34.9492 -77.9141 -77.9141 -77.9141c-42.9639 0 -77.9131 34.9492 -77.9131 77.9141c0 42.9639 34.9502 77.9131 77.9131 77.9131zM255.999 225.392
c30.6768 0 55.6523 24.9766 55.6523 55.6523c0 30.6748 -24.9766 55.6514 -55.6523 55.6514c-30.6748 0 -55.6514 -24.9766 -55.6514 -55.6514c0 -30.6758 24.9766 -55.6523 55.6514 -55.6523zM411.826 269.913c30.6748 0 55.6514 -24.9766 55.6514 -55.6523
c0 -30.6748 -24.9766 -55.6514 -55.6514 -55.6514s-55.6514 24.9766 -55.6514 55.6514c0 30.6758 24.9766 55.6523 55.6514 55.6523zM411.826 180.87c18.4092 0 33.3916 14.9805 33.3916 33.3906s-14.9814 33.3916 -33.3916 33.3916s-33.3916 -14.9814 -33.3916 -33.3916
s14.9814 -33.3906 33.3916 -33.3906zM101.755 269.913c30.6973 0 55.6514 -24.9766 55.6514 -55.6523c0 -30.6748 -24.9766 -55.6514 -55.6514 -55.6514s-55.6523 24.9766 -55.6523 55.6514c0 30.6758 24.9541 55.6523 55.6523 55.6523zM101.755 180.87
c18.4092 0 33.3906 14.9805 33.3906 33.3906s-14.9805 33.3916 -33.3906 33.3916s-33.3916 -14.9814 -33.3916 -33.3916s14.9814 -33.3906 33.3916 -33.3906zM255.999 180.87c79.7842 0 144.696 -64.9131 144.696 -144.696c0 -6.14355 -4.98633 -11.1309 -11.1309 -11.1309
c-6.14355 0 -11.1309 4.9873 -11.1309 11.1309c0 67.5176 -54.917 122.435 -122.435 122.435c-67.5166 0 -122.434 -54.917 -122.434 -122.435c0 -6.14355 -4.9873 -11.1309 -11.1309 -11.1309c-6.14453 0 -11.1309 4.9873 -11.1309 11.1309
c0 79.7832 64.9121 144.696 144.695 144.696zM411.826 136.348c55.2295 0 100.174 -44.9443 100.175 -100.174c0 -6.14355 -4.98633 -11.1309 -11.1309 -11.1309c-6.14355 0 -11.1309 4.9873 -11.1309 11.1309c0 42.9639 -34.9502 77.9131 -77.9131 77.9131
c-14.2695 0 -28.2051 -3.87305 -40.3369 -11.2422c-5.25391 -3.18359 -12.0654 -1.51367 -15.293 3.74023c-3.18359 5.25391 -1.49121 12.0869 3.74023 15.293c15.627 9.46094 33.5693 14.4697 51.8896 14.4697zM152.042 121.9
c5.25293 -3.20508 6.94531 -10.0391 3.74023 -15.293c-3.20605 -5.25391 -10.0625 -6.92383 -15.2939 -3.73926c-12.1104 7.3457 -26.0449 11.2188 -40.3145 11.2188c-42.9629 0 -77.9131 -34.9492 -77.9121 -77.9131c0 -6.14355 -4.9873 -11.1309 -11.1309 -11.1309
c-6.14453 0 -11.1309 4.9873 -11.1309 11.1309c0 55.2295 44.9443 100.174 100.174 100.174c18.3213 0 36.2627 -5.00879 51.8682 -14.4473z" />
    <glyph glyph-name="048-angle-arrow-down" unicode="&#xf12f;" 
d="M506.884 310.515c3.41797 -3.4248 5.11621 -7.36035 5.11621 -11.8076c0 -4.44238 -1.69824 -8.37793 -5.11621 -11.7969l-239.09 -239.076c-3.41602 -3.41895 -7.3457 -5.12793 -11.791 -5.12793c-4.44629 0 -8.38281 1.70898 -11.8008 5.12793l-239.07 239.076
c-3.41895 3.41699 -5.13184 7.35254 -5.13184 11.7969c0 4.44727 1.70703 8.38281 5.13184 11.7998l25.6465 25.6494c3.41699 3.42578 7.35254 5.13281 11.7998 5.13281c4.44629 0 8.38086 -1.70703 11.8008 -5.13281l201.624 -201.616l201.633 201.622
c3.41699 3.4248 7.35254 5.13184 11.793 5.13184c4.45117 0 8.3877 -1.70703 11.8057 -5.13184z" />
    <glyph glyph-name="058-house" unicode="&#xf139;" 
d="M486.203 44.7383c15.418 -5.36328 25.7695 -19.8789 25.8125 -36.207c-0.0195312 -8.64844 -3.01172 -17.0273 -8.48438 -23.7305c5.22656 -3.03906 8.45312 -8.62109 8.48438 -14.668v-17.0664c0 -9.42578 -7.64062 -17.0664 -17.0664 -17.0664h-477.867
c-9.42578 0 -17.0664 7.64062 -17.0664 17.0664v17.0664c0.0195312 6.04297 3.24609 11.625 8.47266 14.6602c-5.46484 6.70703 -8.45703 15.0898 -8.47266 23.7383c0.0429688 16.3281 10.3945 30.8438 25.8125 36.207c0.835938 15.4102 10.8477 28.8047 25.3867 33.9727
v190.09l-12.1094 -7.29688c-4.01953 -2.53906 -8.67578 -3.88281 -13.4297 -3.875c-1.9375 0 -3.86719 0.21875 -5.75391 0.648438c-10.0938 2.29688 -17.8125 10.4492 -19.5547 20.6523c-1.74219 10.207 2.83203 20.457 11.5938 25.9727l230.555 139.238
c8.32422 5.16016 18.8594 5.125 27.1523 -0.0820312l230.254 -139.086c9.71875 -6.03125 14.2578 -17.7773 11.1211 -28.7734c-3.14062 -11 -13.1914 -18.582 -24.6289 -18.5781c-4.83203 0 -9.56641 1.36719 -13.6523 3.94141l-11.9453 7.23828v-190.09
c14.5391 -5.16797 24.5469 -18.5625 25.3867 -33.9727zM469.348 42.6641c0 11.7852 -9.55078 21.3359 -21.332 21.3359c-1.69922 -0.0234375 -3.39062 -0.253906 -5.03516 -0.683594c0.5 -2.58594 0.757812 -5.21484 0.765625 -7.85156
c-0.015625 -7.49219 -1.99609 -14.8477 -5.75 -21.332c-1.51172 -2.66406 -4.33594 -4.30859 -7.39844 -4.31641s-5.89453 1.62891 -7.41797 4.28516c-1.52734 2.65234 -1.51172 5.92188 0.0390625 8.5625c2.26562 3.88672 3.46094 8.30469 3.46094 12.8008
c0.0351562 3.19922 -0.597656 6.36719 -1.85156 9.3125c-4.45312 11.4688 -16.4492 18.1328 -28.543 15.8516c-12.0898 -2.28125 -20.8359 -12.8594 -20.8047 -25.1641c-0.0195312 -4.80859 1.34375 -9.51953 3.92578 -13.5742
c0.179688 -0.390625 0.332031 -0.792969 0.453125 -1.20312c0.222656 -0.378906 0.414062 -0.769531 0.570312 -1.17969v-0.398438c0.117188 -1.10156 0.136719 -2.21094 0.0507812 -3.3125c-0.128906 -0.523438 -0.304688 -1.03516 -0.527344 -1.52734
c-0.171875 -0.515625 -0.394531 -1.01172 -0.664062 -1.48438c-0.300781 -0.417969 -0.636719 -0.800781 -1.00781 -1.15234c-0.386719 -0.453125 -0.824219 -0.867188 -1.29688 -1.23047c-0.113281 -0.0742188 -0.171875 -0.203125 -0.292969 -0.28125
c-0.71875 -0.445312 -1.5 -0.78125 -2.32031 -0.996094h-0.0585938c-3.62109 -0.917969 -6.92188 -2.8125 -9.53906 -5.48047c-4.08203 -3.96875 -6.375 -9.42188 -6.35938 -15.1133c0 -11.7812 9.55078 -21.332 21.332 -21.332h93.8672
c11.7539 0.0742188 21.2617 9.58203 21.3359 21.332c0 10.7109 -7.94141 19.7617 -18.5625 21.1562c-0.09375 0.0078125 -0.160156 0.0859375 -0.253906 0.0859375c-0.207031 0.0078125 -0.410156 0.03125 -0.613281 0.0664062
c-0.390625 0.144531 -0.773438 0.320312 -1.13672 0.519531c-0.542969 0.1875 -1.0625 0.425781 -1.55469 0.71875c-0.425781 0.308594 -0.828125 0.65625 -1.19141 1.03906c-0.414062 0.371094 -0.789062 0.777344 -1.12109 1.22266
c-0.28125 0.441406 -0.519531 0.910156 -0.707031 1.39844c-0.542969 0.980469 -0.789062 2.09766 -0.707031 3.21875c-0.0703125 0.417969 -0.101562 0.84375 -0.09375 1.26953c0.015625 0.152344 0.144531 0.273438 0.144531 0.425781
c-0.0078125 0.152344 -0.0078125 0.304688 0 0.453125c0.148438 0.84375 0.214844 1.70312 0.195312 2.55859zM358.414 81.0664c0.0351562 -3.01562 1.67969 -5.78125 4.30859 -7.25391c2.95312 6.13281 7.32422 11.4688 12.7578 15.5664v25.8203h-17.0664v-34.1328z
M401.082 166.398h-8.53516v-34.1328h17.0664v25.6016c0 4.71094 -3.82031 8.53125 -8.53125 8.53125zM401.082 98.1328c2.86719 -0.03125 5.72656 -0.351562 8.53125 -0.957031v18.0234h-17.0664v-17.918c2.80859 0.570312 5.66797 0.855469 8.53516 0.851562z
M375.48 132.266v34.1328h-8.53125c-4.71484 0 -8.53516 -3.82031 -8.53516 -8.53125v-25.6016h17.0664zM30.1562 276.02l221.438 133.988c2.71875 1.64844 6.125 1.64844 8.83984 0l221.348 -133.922c2.56641 -1.64453 5.81641 -1.79688 8.52734 -0.398438
c2.70703 1.40234 4.46484 4.14062 4.60547 7.1875c0.144531 3.04688 -1.35156 5.9375 -3.91797 7.58203l-230.262 139.094c-1.41016 0.898438 -3.04688 1.37891 -4.71875 1.38281c-1.60938 0.00390625 -3.18359 -0.449219 -4.53906 -1.30469l-230.539 -139.25
c-3.875 -2.57812 -4.96875 -7.79297 -2.45312 -11.7109c2.51562 -3.92188 7.70703 -5.09766 11.6719 -2.64844zM256.016 392.73l-187.734 -113.59v-198.363c2.51172 -0.28125 4.99219 -0.8125 7.39844 -1.58203c2.64844 3.91797 5.91406 7.375 9.66797 10.2422v68.4297
c0 14.1367 11.4609 25.5977 25.6016 25.5977h34.1328c14.1367 0 25.5977 -11.4609 25.5977 -25.5977v-76.8008c-0.046875 -10.8438 -6.92188 -20.4805 -17.1602 -24.0547c0.0195312 -0.53125 0.09375 -1.00781 0.09375 -1.54688
c-0.0234375 -4.63281 -0.8125 -9.23047 -2.32812 -13.6094c3.00391 -1.70312 5.75391 -3.81641 8.17578 -6.28125c7.22656 -7.13672 11.2695 -16.8867 11.2188 -27.043c0.00390625 -7.59766 -2.25781 -15.0273 -6.5 -21.332h23.5664v179.199
c0 18.8516 15.2852 34.1328 34.1367 34.1328h68.2656c18.8516 0 34.1328 -15.2812 34.1328 -34.1328v-179.199h23.5703c-10.2383 15.2305 -8.21094 35.5859 4.82812 48.4961c2.38672 2.41797 5.09766 4.49609 8.05469 6.16797
c-1.51172 4.37891 -2.29297 8.97266 -2.32031 13.6016c0 0.523438 0.152344 1.00781 0.152344 1.52734c-10.2773 3.54297 -17.1875 13.2031 -17.2188 24.0742v76.8008c0 14.1367 11.4609 25.5977 25.6016 25.5977h34.1328c14.1367 0 25.5977 -11.4609 25.5977 -25.5977
v-68.3516c3.80078 -2.875 7.07812 -6.37109 9.70312 -10.3438c2.39453 0.777344 4.86328 1.30859 7.36328 1.59375v198.375zM307.215 -12.8008v179.199c0 9.42578 -7.64062 17.0664 -17.0664 17.0664h-68.2656c-9.42578 0 -17.0664 -7.64062 -17.0664 -17.0664v-179.199
h102.398zM145.082 166.398h-8.53516v-34.1328h17.0664v25.6016c0 4.71094 -3.82031 8.53125 -8.53125 8.53125zM149.348 73.8711c2.59766 1.47266 4.22266 4.21094 4.26562 7.19531v34.1328h-17.0664v-25.8906c5.43359 -4.05469 9.82031 -9.34766 12.8008 -15.4375z
M119.48 132.266v34.1328h-8.53125c-4.71484 0 -8.53516 -3.82031 -8.53516 -8.53125v-25.6016h17.0664zM102.414 115.199v-18.0898c5.63281 1.12891 11.4336 1.12891 17.0664 0v18.0898h-17.0664zM35.6602 29.6875c-10.6289 -1.38672 -18.5781 -10.4375 -18.5781 -21.1562
c0.0742188 -11.75 9.58203 -21.2578 21.332 -21.332h93.8672c11.7812 0 21.332 9.55078 21.332 21.332c0.0429688 5.64453 -2.20312 11.0664 -6.21875 15.0273c-2.64062 2.72266 -5.98047 4.65625 -9.65234 5.58984h-0.0585938
c-0.820312 0.214844 -1.60156 0.554688 -2.32031 1c-0.121094 0.0742188 -0.179688 0.203125 -0.292969 0.28125c-0.472656 0.363281 -0.90625 0.773438 -1.29688 1.22656c-0.371094 0.351562 -0.707031 0.738281 -1.00391 1.15234
c-0.273438 0.472656 -0.496094 0.96875 -0.667969 1.48438c-0.222656 0.492188 -0.398438 1.00391 -0.527344 1.52734c-0.0859375 1.10547 -0.0664062 2.21484 0.0507812 3.3125v0.402344c0.15625 0.40625 0.347656 0.796875 0.570312 1.16797
c0.117188 0.414062 0.269531 0.820312 0.453125 1.21094c2.57031 4.05078 3.92188 8.75391 3.89844 13.5508c0.0273438 2.10156 -0.238281 4.19531 -0.792969 6.22266c-2.68359 10.7305 -11.9727 18.5156 -23.0117 19.2773
c-11.0352 0.761719 -21.3086 -5.67188 -25.4414 -15.9336c-1.30859 -3.01562 -1.97266 -6.27734 -1.95312 -9.56641c0 -4.5 1.19922 -8.91797 3.47266 -12.8008c2.35547 -4.08594 0.953125 -9.30859 -3.13281 -11.6641s-9.30859 -0.953125 -11.6641 3.13281
c-3.74609 6.48828 -5.72656 13.8438 -5.74219 21.332c0.0117188 2.63672 0.269531 5.26562 0.777344 7.85156c-1.64844 0.433594 -3.33984 0.660156 -5.04297 0.683594c-11.7812 0 -21.3359 -9.55078 -21.3359 -21.3359
c-0.0078125 -0.847656 0.0625 -1.69531 0.214844 -2.53125c0 -0.15625 -0.0273438 -0.300781 0 -0.453125s0.144531 -0.273438 0.144531 -0.425781c0 -0.417969 -0.03125 -0.835938 -0.09375 -1.24609c0.0898438 -1.11328 -0.152344 -2.23047 -0.691406 -3.21094
c-0.195312 -0.503906 -0.4375 -0.988281 -0.722656 -1.44922c-0.332031 -0.425781 -0.699219 -0.820312 -1.10156 -1.17578c-0.371094 -0.398438 -0.78125 -0.761719 -1.22266 -1.07812c-0.484375 -0.285156 -1 -0.523438 -1.53516 -0.707031
c-0.367188 -0.199219 -0.75 -0.375 -1.14453 -0.519531c-0.203125 -0.046875 -0.40625 -0.078125 -0.613281 -0.09375c-0.09375 -0.0195312 -0.160156 -0.0859375 -0.253906 -0.0859375zM17.082 -29.8672v-17.0664h136.531v17.0664h-136.531zM170.68 -46.9336h170.668
v17.0664h-170.668v-17.0664zM358.414 -46.9336h136.535v17.0664h-136.535v-17.0664zM358.414 -46.9336zM290.148 72.5312c0 -4.71094 -3.82031 -8.53125 -8.53516 -8.53125c-4.71094 0 -8.53125 3.82031 -8.53125 8.53125c0 4.71484 3.82031 8.53516 8.53125 8.53516
c4.71484 0 8.53516 -3.82031 8.53516 -8.53516zM290.148 72.5312zM221.883 217.598c-9.42578 0 -17.0664 7.64453 -17.0664 17.0664v68.2695c0 28.2773 22.9219 51.1992 51.1992 51.1992s51.1992 -22.9219 51.1992 -51.1992v-68.2695
c0 -9.42188 -7.64062 -17.0664 -17.0664 -17.0664h-68.2656zM221.883 268.801v-34.1367h25.5977v34.1367h-25.5977zM264.547 234.664h25.6016v34.1367h-25.6016v-34.1367zM290.148 302.934c-0.0585938 15.5156 -10.5742 29.043 -25.6016 32.9219v-49.9883h25.6016v17.0664z
M247.48 335.855c-15.0234 -3.87891 -25.5391 -17.4062 -25.5977 -32.9219v-17.0664h25.5977v49.9883zM247.48 335.855z" />
    <glyph glyph-name="024-home" unicode="&#xf117;" 
d="M506.555 239.936c5.92871 -4.34082 7.2168 -12.6641 2.87402 -18.5918c-2.60547 -3.55957 -6.64746 -5.44434 -10.7441 -5.44434c-2.72754 0 -5.47949 0.834961 -7.84766 2.56934l-234.837 171.943l-234.837 -171.944c-5.92676 -4.33887 -14.252 -3.05273 -18.5928 2.875
c-4.3418 5.92871 -3.05371 14.252 2.875 18.5928l242.697 177.697c4.67871 3.42578 11.0361 3.42578 15.7168 0zM442.246 215.457c7.34668 0 13.3027 -5.95605 13.3037 -13.3037v-225.054c0 -7.34668 -5.95605 -13.3027 -13.3027 -13.3027h-133.029
c-7 0 -12.7266 5.41211 -13.251 12.2793c-0.0322266 0.306641 -0.0517578 0.640625 -0.0517578 1.02344v128.891c0 22.0078 -17.9053 39.9141 -39.9141 39.9141s-39.9141 -17.9053 -39.9141 -39.9141v-128.891c0 -0.384766 -0.0195312 -0.724609 -0.0517578 -1.03516
c-0.530273 -6.8623 -6.25488 -12.2676 -13.251 -12.2676h-133.029c-7.3457 0 -13.3027 5.95605 -13.3027 13.3027v225.054c0 7.34668 5.95703 13.3027 13.3027 13.3027s13.3027 -5.95605 13.3027 -13.3027v-211.749h106.424v115.587
c0 36.6777 29.8418 66.5195 66.5195 66.5195s66.5205 -29.8398 66.5205 -66.5195v-115.586h106.422v211.749c0 7.34668 5.95703 13.3027 13.3027 13.3027z" />
    <glyph glyph-name="068-list" unicode="&#xf143;" 
d="M492 212c11.0459 0 20 -8.9541 20 -20s-8.9541 -20 -20 -20h-347.738c-11.0459 0 -20 8.9541 -20 20s8.9541 20 20 20h347.738zM492 362c11.0459 0 20 -8.9541 20 -20s-8.9541 -20 -20 -20h-347.738c-11.0459 0 -20 8.9541 -20 20s8.9541 20 20 20h347.738zM492 62
c11.0459 0 20 -8.9541 20 -20s-8.9541 -20 -20 -20h-347.738c-11.0459 0 -20 8.9541 -20 20s8.9541 20 20 20h347.738zM0 342c0 14.9121 12.0879 27 27 27s27 -12.0879 27 -27s-12.0879 -27 -27 -27s-27 12.0879 -27 27zM0 192c0 14.9121 12.0879 27 27 27
s27 -12.0879 27 -27s-12.0879 -27 -27 -27s-27 12.0879 -27 27zM0 42c0 14.9121 12.0879 27 27 27s27 -12.0879 27 -27s-12.0879 -27 -27 -27s-27 12.0879 -27 27z" />
    <glyph glyph-name="059-house-1" unicode="&#xf13a;" 
d="M511.865 226.513c0.919922 -11.9814 -2.88086 -23.6074 -10.7012 -32.7354c-12.1279 -14.1338 -31.6328 -19.3301 -49.167 -13.1299v-229.581c0 -8.2832 -6.71484 -14.999 -14.999 -14.999h-361.987c-8.28223 0 -14.7988 6.71484 -14.7988 14.999v229.584
c-16.9854 -5.96973 -36.9111 -1.3584 -49.3496 13.1074c-16.3203 19.0498 -13.8877 47.4043 4.86621 63.4727l212.043 179.836c16.916 14.4932 41.5488 14.4951 58.5195 -0.0429688l75.9111 -64.6953v30.7275c0 8.2832 6.51465 14.999 14.7988 14.999h59.998
c8.2832 0 14.999 -6.71484 14.999 -14.999v-107.867l44.2861 -37.96c9.12598 -7.82031 14.6602 -18.7275 15.5811 -30.7158zM392 388.057v-41.4404l30.1992 -25.7139v67.1543h-30.1992zM317.202 -33.9346v120.196h-122.194v-120.196h122.194zM422.199 -33.9346h0.000976562
v236.299l-165.246 141.474l-166.943 -141.613v-236.159h75.1973v134.995c0 8.2832 6.51562 14.999 14.7998 14.999h151.995c8.2832 0 14.999 -6.71484 14.999 -14.999v-134.995h75.1973zM478.39 213.306c5.37793 6.27441 4.65137 15.7646 -1.62695 21.1445l-209.994 179.796
c-5.65625 4.84668 -13.8701 4.8457 -19.5303 -0.00195312l-212.044 -179.837c-6.22656 -5.33594 -6.9541 -14.8242 -1.56934 -21.1094c5.37891 -6.25684 14.8789 -6.99023 21.1611 -1.61523c0.793945 0.673828 188.456 159.864 192.516 163.307
c5.61914 4.7666 13.8691 4.74707 19.4639 -0.0507812l190.466 -163.264c6.38672 -5.47656 15.8408 -4.56738 21.1582 1.63086zM302.003 268.062c8.2832 0 15 -6.71484 14.999 -14.999v-89.9961c0 -8.2832 -6.71582 -14.999 -14.999 -14.999h-91.9961
c-8.2832 0 -14.7998 6.71484 -14.7998 14.999v89.9961c0 8.2832 6.51562 14.999 14.7998 14.999h91.9961zM287.203 178.064v59.998h-62.1973v-59.998h62.1973zM257.001 41.0654c0 8.2832 6.71484 14.999 14.999 14.999c8.2832 0 14.999 -6.71582 14.999 -14.999
c0 -8.28418 -6.71582 -14.999 -14.999 -14.999c-8.28418 0 -14.999 6.71484 -14.999 14.999z" />
    <glyph glyph-name="001-calendar" unicode="&#xf100;" 
d="M366 238c0 11.0459 8.9541 20 20 20s20 -8.9541 20 -20s-8.9541 -20 -20 -20s-20 8.9541 -20 20zM432 408c44.1123 0 80 -35.8877 80 -80v-114c0 -11.0459 -8.9541 -20 -20 -20s-20 8.9541 -20 20v114c0 22.0557 -17.9443 40 -40 40h-26v-20
c0 -11.0459 -8.9541 -20 -20 -20s-20 8.9541 -20 20v20h-91v-20c0 -11.0459 -8.9541 -20 -20 -20s-20 8.9541 -20 20v20h-90v-20c0 -11.0459 -8.9541 -20 -20 -20s-20 8.9541 -20 20v20h-25c-22.0557 0 -40 -17.9443 -40 -40v-312c0 -22.0557 17.9443 -40 40 -40h153
c11.0459 0 20 -8.9541 20 -20s-8.9541 -20 -20 -20h-153c-44.1123 0 -80 35.8877 -80 80v312c0 44.1123 35.8877 80 80 80h25v20c0 11.0459 8.9541 20 20 20s20 -8.9541 20 -20v-20h90v20c0 11.0459 8.9541 20 20 20s20 -8.9541 20 -20v-20h91v20c0 11.0459 8.9541 20 20 20
s20 -8.9541 20 -20v-20h26zM391 178c66.7197 0 121 -54.2803 121 -121s-54.2803 -121 -121 -121s-121 54.2803 -121 121s54.2803 121 121 121zM391 -24c44.6631 0 81 36.3359 81 81s-36.3369 81 -81 81s-81 -36.3359 -81 -81s36.3369 -81 81 -81zM420 77
c11.0459 0 20 -8.9541 20 -20s-8.9541 -20 -20 -20h-29c-11.0459 0 -20 8.9541 -20 20v41c0 11.0459 8.9541 20 20 20s20 -8.9541 20 -20v-21h9zM279 238c0 11.0459 8.9541 20 20 20s20 -8.9541 20 -20s-8.9541 -20 -20 -20s-20 8.9541 -20 20zM192 151
c0 11.0459 8.9541 20 20 20s20 -8.9541 20 -20s-8.9541 -20 -20 -20s-20 8.9541 -20 20zM105 238c0 11.0459 8.9541 20 20 20s20 -8.9541 20 -20s-8.9541 -20 -20 -20s-20 8.9541 -20 20zM105 151c0 11.0459 8.9541 20 20 20s20 -8.9541 20 -20s-8.9541 -20 -20 -20
s-20 8.9541 -20 20zM105 64c0 11.0459 8.9541 20 20 20s20 -8.9541 20 -20s-8.9541 -20 -20 -20s-20 8.9541 -20 20zM192 64c0 11.0459 8.9541 20 20 20s20 -8.9541 20 -20s-8.9541 -20 -20 -20s-20 8.9541 -20 20zM192 238c0 11.0459 8.9541 20 20 20s20 -8.9541 20 -20
s-8.9541 -20 -20 -20s-20 8.9541 -20 20z" />
    <glyph glyph-name="015-front-of-bus" unicode="&#xf10e;" 
d="M466.544 322.809c13.2852 -1.08203 23.7646 -12.0684 23.7529 -25.6133v-50.0645c0 -11.6064 -7.63965 -21.2529 -18.1084 -24.5312c2.11914 -85.3584 -0.450195 -175.787 -0.450195 -216.589c-1.60059 -14.875 -26.5713 -11.4492 -26.5713 -11.4492h-6.53516v-34.0977
c0 -13.5225 -13.9395 -24.4639 -31.1123 -24.4639c-17.1953 0 -31.123 10.9414 -31.123 24.4639v34.0977h-231.384v-34.0977c0 -13.5225 -13.9395 -24.4639 -31.1348 -24.4639c-17.1729 0 -31.1123 10.9414 -31.1123 24.4639v34.0977h-19.8887
s-21.2178 -5.23926 -21.2178 26.3457c-3.49316 40.915 -5.38672 123.186 -3.05371 202.041c-9.84863 3.66211 -16.9023 13.0488 -16.9023 24.1826v50.0645c0 13.2295 9.99512 24.0361 22.8291 25.5459c3.97754 40.0361 9.90527 71.7451 18.3564 85.2676
c34.5488 55.1924 338.839 51.4287 382.278 0c10.5361 -12.5078 17.1963 -44.3301 21.377 -85.2002zM137.203 400.673v-35.3486h233.649v35.3486h-233.649zM140.539 34.8232c18.3555 0 33.2188 14.874 33.2188 33.2197c0 18.333 -14.874 33.1963 -33.2188 33.1963
s-33.208 -14.8633 -33.208 -33.1963c0 -18.3457 14.8633 -33.2197 33.208 -33.2197zM369.602 34.8232c18.3447 0 33.2197 14.874 33.208 33.2197c0 18.333 -14.8633 33.1963 -33.208 33.1963s-33.2305 -14.8633 -33.2305 -33.1963
c0 -18.3457 14.8975 -33.2197 33.2305 -33.2197zM411.824 180.186v165.531h-315.593v-165.531h315.593z" />
    <glyph glyph-name="065-password" unicode="&#xf140;" 
d="M350 102c0 11.0459 8.9541 20 20 20s20 -8.9541 20 -20s-8.9541 -20 -20 -20s-20 8.9541 -20 20zM460 86c-11.0459 0 -20 8.9541 -20 20v74c0 22.0557 -17.9443 40 -40 40h-288c-22.0557 0 -40 -17.9443 -40 -40v-164c0 -22.0557 17.9443 -40 40 -40h288
c22.0557 0 40 17.9443 40 40c0 11.0459 8.9541 20 20 20s20 -8.9541 20 -20c0 -44.1123 -35.8877 -80 -80 -80h-288c-44.1123 0 -80 35.8877 -80 80v164c0 44.1123 35.8877 80 80 80h23.9629v70.5342c0 64.7705 53.832 117.466 120 117.466s120 -52.6953 120 -117.466
v-70.5342h24.0371c44.1123 0 80 -35.8877 80 -80v-74c0 -11.0459 -8.9541 -20 -20 -20zM335.963 260v70.5342c0 42.7148 -35.8877 77.4658 -80 77.4658s-80 -34.751 -80 -77.4658v-70.5342h160zM199 102c0 11.0459 8.9541 20 20 20s20 -8.9541 20 -20s-8.9541 -20 -20 -20
s-20 8.9541 -20 20zM124 102c0 11.0459 8.9541 20 20 20s20 -8.9541 20 -20s-8.9541 -20 -20 -20s-20 8.9541 -20 20zM274 102c0 11.0459 8.9541 20 20 20s20 -8.9541 20 -20s-8.9541 -20 -20 -20s-20 8.9541 -20 20z" />
    <glyph glyph-name="069-menu" unicode="&#xf144;" 
d="M176.792 448c32.6475 0 59.208 -26.5605 59.208 -59.208v-117.584c0 -32.6475 -26.5605 -59.208 -59.208 -59.208h-117.584c-32.6475 0 -59.208 26.5605 -59.208 59.208v117.584c0 32.6475 26.5605 59.208 59.208 59.208h117.584zM196 271.208v117.584
c0 10.5908 -8.61719 19.208 -19.208 19.208h-117.584c-10.5908 0 -19.208 -8.61719 -19.208 -19.208v-117.584c0 -10.5908 8.61719 -19.208 19.208 -19.208h117.584c10.5908 0 19.208 8.61719 19.208 19.208zM452 448c33.084 0 60 -26.916 60 -60v-116
c0 -33.084 -26.916 -60 -60 -60h-116c-33.084 0 -60 26.916 -60 60v116c0 33.084 26.916 60 60 60h116zM472 272v116c0 11.0283 -8.97168 20 -20 20h-116c-11.0283 0 -20 -8.97168 -20 -20v-116c0 -11.0283 8.97168 -20 20 -20h116c11.0283 0 20 8.97168 20 20zM176.792 172
c32.6475 0 59.208 -26.5605 59.208 -59.208v-117.584c0 -32.6475 -26.5605 -59.208 -59.208 -59.208h-117.584c-32.6475 0 -59.208 26.5605 -59.208 59.208v117.584c0 32.6475 26.5605 59.208 59.208 59.208h117.584zM196 -4.79199v117.584
c0 10.5908 -8.61719 19.208 -19.208 19.208h-117.584c-10.5908 0 -19.208 -8.61719 -19.208 -19.208v-117.584c0 -10.5908 8.61719 -19.208 19.208 -19.208h117.584c10.5908 0 19.208 8.61719 19.208 19.208zM452 172c33.084 0 60 -26.916 60 -60v-116
c0 -33.084 -26.916 -60 -60 -60h-116c-33.084 0 -60 26.916 -60 60v116c0 33.084 26.916 60 60 60h116zM472 -4v116c0 11.0283 -8.97168 20 -20 20h-116c-11.0283 0 -20 -8.97168 -20 -20v-116c0 -11.0283 8.97168 -20 20 -20h116c11.0283 0 20 8.97168 20 20z" />
    <glyph glyph-name="036-left-arrow" unicode="&#xf123;" 
d="M489.836 214.164c12.2402 0 22.1641 -9.92188 22.1641 -22.1611s-9.9248 -22.1631 -22.1641 -22.1631h-414.168l98.8262 -98.8379c8.6582 -8.65039 8.6582 -22.6865 0 -31.3398c-4.32715 -4.33008 -9.99902 -6.49219 -15.6699 -6.49219
c-5.66992 0 -11.3418 2.16211 -15.6689 6.49219l-136.662 136.671c-8.65723 8.65039 -8.65723 22.6875 0 31.3408l136.662 136.664c8.64453 8.65723 22.6807 8.65723 31.3389 0c8.6582 -8.65137 8.6582 -22.6875 0 -31.3408l-98.8262 -98.833h414.168z" />
    <glyph glyph-name="020-telephone" unicode="&#xf113;" 
d="M389.257 109.302c20.3496 -20.2432 40.6992 -40.4863 60.9424 -60.8359c16.9404 -17.0469 16.834 -37.9287 -0.212891 -55.1885c-11.5068 -11.6133 -23.7598 -22.6934 -34.627 -34.8398c-15.874 -17.792 -35.6914 -23.5459 -58.4912 -22.2666
c-33.1348 1.81055 -63.6064 12.7842 -93.0117 27.0615c-65.3105 31.749 -121.139 75.751 -167.911 131.366c-34.626 41.126 -63.1797 85.9805 -81.9307 136.481c-9.16309 24.3975 -15.6621 49.4355 -13.6377 75.9648c1.27832 16.3008 7.35156 30.2578 19.3906 41.6572
c12.998 12.3594 25.251 25.251 38.0361 37.8232c16.6201 16.4072 37.5029 16.4072 54.2295 0.106445c10.335 -10.1221 20.4561 -20.4561 30.6846 -30.6846c9.9082 -10.0146 19.8164 -19.8164 29.7256 -29.832c17.4727 -17.5791 17.4727 -38.0352 0.106445 -55.5078
c-12.4658 -12.5723 -24.8242 -25.1445 -37.5029 -37.3965c-3.30273 -3.30273 -3.62305 -5.9668 -1.91797 -10.0156c8.41699 -20.0293 20.4561 -37.8223 33.9873 -54.4424c27.2744 -33.4551 58.0654 -63.1797 94.8223 -86.2998
c7.88477 -4.90137 16.6211 -8.52344 24.8242 -12.998c4.15527 -2.34375 7.03223 -1.59863 10.4414 1.91797c12.4658 12.7852 25.1445 25.3564 37.8223 37.9287c16.6211 16.5137 37.5029 16.5137 54.2305 0zM368.907 194.216
c-4.79395 27.9141 -17.8994 53.2715 -37.9287 73.3018c-21.2021 21.2012 -48.0508 34.5195 -77.5635 38.6748l5.54004 39.5273c38.1426 -5.32715 72.7686 -22.5869 100.15 -49.9688c25.8896 -25.9961 42.9365 -58.7051 49.1162 -94.8223zM430.382 365.11
c43.043 -43.1504 71.2773 -97.4863 81.6113 -157.363l-39.3135 -6.71191c-8.84277 51.6729 -33.2412 98.6582 -70.4248 135.841c-39.207 39.1016 -88.8564 63.9258 -143.619 71.5967l5.54004 39.5273c63.3926 -8.84277 120.819 -37.5029 166.206 -82.8896z" />
    <glyph glyph-name="025-heart" unicode="&#xf118;" 
d="M472.08 366.88c54.1152 -55.3457 53.0811 -145.431 -2.30371 -200.818l-176.34 -176.322c-10.25 -10.25 -23.7168 -15.375 -37.1807 -15.376c-13.4668 0 -26.9307 5.12598 -37.1836 15.377l-177.482 177.48c-26.8203 26.8193 -41.5898 62.4785 -41.5898 100.409
s14.7695 73.5898 41.5898 100.409c26.8242 26.8262 62.4863 41.5986 100.417 41.5986c37.9189 0 73.5752 -14.7725 100.401 -41.5986l13.8584 -13.8594l13.8467 13.8555c26.8281 26.8291 62.4902 41.6016 100.421 41.6016c38.5234 0 74.5859 -15.1846 101.546 -42.7568z
M451.183 184.654c45.25 45.249 46.1914 118.749 2.0957 163.846c-21.9727 22.4707 -51.3584 34.8467 -82.7471 34.8467c-30.9082 0 -59.9668 -12.0381 -81.8262 -33.8965l-53.6582 -53.7002c-2.56641 -2.56836 -5.93164 -3.85352 -9.29883 -3.85352
c-3.36328 0 -6.72461 1.28125 -9.29199 3.84668c-5.13477 5.13184 -5.13867 13.4551 -0.00683594 18.5908l21.2324 21.249l-13.8652 13.8662c-21.8594 21.8584 -50.9131 33.8965 -81.8096 33.8965c-30.9082 0 -59.9678 -12.0381 -81.8262 -33.8965
c-21.8535 -21.8545 -33.8887 -50.9102 -33.8887 -81.8184s12.0352 -59.9639 33.8887 -81.8164l177.483 -177.484c10.25 -10.251 26.9297 -10.251 37.1807 -0.000976562zM466.29 273.597c0.448242 -7.24707 -5.0625 -13.4834 -12.3076 -13.9287
c-0.276367 -0.0175781 -0.551758 -0.0263672 -0.823242 -0.0263672c-6.8916 0 -12.6777 5.36523 -13.1094 12.3359c-1.04883 16.9756 -8.23633 32.9346 -20.2412 44.9385c-8.51465 8.51465 -19.0547 14.6963 -30.4814 17.875
c-6.99512 1.94629 -11.0879 9.19434 -9.14258 16.1875c1.94629 6.99512 9.19336 11.0889 16.1885 9.14258c15.7812 -4.39355 30.3135 -12.9033 42.0264 -24.6152c16.541 -16.543 26.4453 -38.5293 27.8906 -61.9092z" />
    <glyph glyph-name="009-share" unicode="&#xf108;" 
d="M405.688 119.069c50.499 0 91.6416 -41.0361 91.6416 -91.5342c0 -50.499 -41.0371 -91.5352 -91.5352 -91.5352s-91.5352 41.1426 -91.5352 91.5352c0 10.6309 1.91406 20.9434 5.31641 30.5117l-140.545 78.5645c-16.7979 -21.9004 -43.1631 -36.04 -72.7178 -36.04
c-50.499 0 -91.6416 41.0371 -91.6416 91.5352s41.1426 91.5352 91.5352 91.5352c29.5547 0 55.9199 -14.0332 72.6113 -35.9336l140.438 78.458c-3.40234 9.46191 -5.20898 19.668 -5.20898 30.2988c0 50.499 41.0361 91.5352 91.5342 91.5352
c50.499 0 91.5352 -41.0361 91.5352 -91.5352c0 -50.498 -41.1426 -91.5342 -91.5352 -91.5342c-29.5547 0 -55.9199 14.1387 -72.6113 35.9336l-140.545 -78.459c3.40234 -9.56836 5.20996 -19.668 5.20996 -30.2988c0 -10.5254 -1.80762 -20.7314 -5.10352 -30.1924
l140.651 -78.5654c16.7979 21.6875 43.0566 35.7207 72.5049 35.7207zM405.688 419.189c-34.5518 0 -62.8301 -28.1729 -62.8301 -62.8311c0 -34.6572 28.1729 -62.8301 62.8301 -62.8301c34.6582 0 62.8311 28.1729 62.8311 62.8301
c0 34.6582 -28.1729 62.8311 -62.8311 62.8311zM106.312 129.275c34.5518 0 62.8301 28.1729 62.8301 62.8311c0 34.6572 -28.1729 62.8301 -62.8301 62.8301c-34.6582 0 -62.8311 -28.1729 -62.8311 -62.8301c0 -34.6582 28.1729 -62.8311 62.8311 -62.8311z
M405.688 -35.1895c34.6582 0 62.8311 28.1729 62.8311 62.8311c0 34.6572 -28.1729 62.8301 -62.8311 62.8301c-34.6572 0 -62.8301 -28.1729 -62.8301 -62.8301c0 -34.6582 28.1729 -62.8311 62.8301 -62.8311z" />
    <glyph glyph-name="072-list-1" unicode="&#xf147;" 
d="M493.648 385.606c11.0117 0 18.3516 -7.34082 18.3516 -18.3516c0 -11.0117 -7.34082 -18.3516 -18.3516 -18.3516h-302.796c-9.17578 0 -18.3516 7.33984 -18.3516 18.3516c0 11.0107 7.34082 18.3516 18.3516 18.3516h302.796zM495.483 209.435
c9.17676 0 16.5166 -7.34082 16.5166 -18.3516c0 -11.0117 -7.34082 -18.3516 -18.3516 -18.3516h-302.796c-11.0117 0 -18.3516 7.33984 -18.3516 18.3516c0 11.0107 7.34082 18.3516 18.3516 18.3516h304.631zM495.483 33.2627
c9.17676 0 16.5166 -7.34082 16.5166 -18.3516c0 -11.0117 -7.34082 -18.3516 -18.3516 -18.3516h-302.796c-11.0117 0 -18.3516 7.34082 -18.3516 18.3516s7.34082 18.3516 18.3516 18.3516h304.631zM66.0645 433.318c36.7021 0 66.0645 -29.3613 66.0654 -66.0635
c0 -36.7031 -29.3633 -66.0654 -66.0654 -66.0654s-66.0645 29.3633 -66.0645 66.0654s29.3623 66.0635 66.0645 66.0635zM66.0645 336.058c16.5166 0 29.3623 14.6797 29.3623 29.3613c0 16.5166 -12.8447 29.3623 -29.3623 29.3623
c-16.5156 0 -29.3613 -12.8447 -29.3613 -29.3623c0 -16.5166 12.8447 -29.3613 29.3613 -29.3613zM66.0645 257.147c36.7021 0 66.0654 -29.3613 66.0654 -66.0645s-29.3633 -66.0654 -66.0654 -66.0654s-66.0645 29.3633 -66.0645 66.0654
s29.3623 66.0645 66.0645 66.0645zM66.0645 161.721c16.5166 0 29.3623 12.8447 29.3623 29.3623c0 16.5166 -12.8447 29.3613 -29.3623 29.3613c-16.5156 0 -29.3613 -12.8457 -29.3613 -29.3613c0 -16.5166 12.8447 -29.3623 29.3613 -29.3623zM66.0645 82.8105
c36.7021 0 66.0645 -31.1963 66.0654 -66.0654c0 -36.7031 -29.3633 -66.0645 -66.0654 -66.0645s-66.0645 29.3613 -66.0645 66.0645s29.3623 66.0654 66.0645 66.0654zM66.0645 -14.4512c16.5166 0 29.3623 12.8457 29.3623 29.3623
c0 16.5156 -12.8447 29.3613 -29.3623 29.3613c-16.5156 0 -29.3613 -12.8457 -29.3613 -29.3613c0 -16.5166 12.8447 -29.3623 29.3613 -29.3623z" />
    <glyph glyph-name="063-play-button" unicode="&#xf13e;" 
d="M439.696 202.039c3.29199 -2.2793 5.2666 -6.02246 5.2666 -10.0332s-1.96289 -7.75293 -5.2666 -10.0332l-353.532 -243.814c-2.08398 -1.42676 -4.49805 -2.1582 -6.92383 -2.1582c-1.93848 0 -3.88867 0.462891 -5.66895 1.38965
c-4.01074 2.10938 -6.52246 6.2666 -6.52246 10.8008v487.631c0 4.53516 2.51172 8.67969 6.52246 10.7891c3.99902 2.08496 8.85059 1.81641 12.5928 -0.755859z" />
    <glyph glyph-name="051-mouse-1" unicode="&#xf132;" 
d="M256 448c94.1055 0 170.667 -76.5273 170.667 -170.584v-170.842c0 -94.0566 -76.5596 -170.574 -170.667 -170.574s-170.667 76.5195 -170.667 170.574v170.842c0 94.0566 76.5596 170.584 170.667 170.584zM407.704 106.574v170.842
c0 83.6035 -68.0547 151.621 -151.704 151.621s-151.704 -68.0205 -151.704 -151.621v-170.842c0 -83.6006 68.0547 -151.611 151.704 -151.611s151.704 68.0107 151.704 151.611zM256 391.112c5.23633 0 9.48047 -4.24121 9.48242 -9.4834v-85.8613
c0 -5.24121 -4.24609 -9.48242 -9.48242 -9.48242s-9.48242 4.24121 -9.48242 9.48242v85.8613c0 5.24219 4.24609 9.4834 9.48242 9.4834z" />
    <glyph glyph-name="050-mouse" unicode="&#xf131;" 
d="M256 448c99.3994 0 180.274 -82.1396 180.274 -183.099v-146.367c0 -100.648 -80.875 -182.534 -180.274 -182.534c-99.4053 0 -180.274 82.1348 -180.274 183.094v145.808c0 100.959 80.8691 183.099 180.274 183.099zM402.366 118.534v146.367
c0 82.2646 -65.6553 149.191 -146.366 149.191c-80.7051 0 -146.366 -66.9268 -146.366 -149.191v-145.803c0 -82.2646 65.6611 -149.191 146.366 -149.191c80.71 0 146.366 66.6729 146.366 148.627zM256 307.85c9.36426 0 16.9541 -7.58984 16.9541 -16.9531v-59.3389
c0 -9.36328 -7.58984 -16.9541 -16.9541 -16.9541s-16.9541 7.59082 -16.9541 16.9541v59.3389c0 9.36328 7.58984 16.9531 16.9541 16.9531z" />
    <glyph glyph-name="070-tasks" unicode="&#xf145;" 
d="M157.385 300h-83.3848c-40.8037 0 -74 33.1963 -74 74s33.1963 74 74 74h84c11.0459 0 20 -8.9541 20 -20s-8.9541 -20 -20 -20h-84c-18.748 0 -34 -15.252 -34 -34s15.252 -34 34 -34h83.3848c11.0459 0 20 -8.9541 20 -20s-8.9541 -20 -20 -20zM512 374
c0 -40.8037 -33.1963 -74 -74 -74h-200.615c-11.0459 0 -20 8.9541 -20 20s8.9541 20 20 20h200.615c18.748 0 34 15.252 34 34s-15.252 34 -34 34h-200c-11.0459 0 -20 8.9541 -20 20s8.9541 20 20 20h200c40.8037 0 74 -33.1963 74 -74zM511 192
c0 -40.8037 -33.1963 -74 -74 -74h-28c-11.0459 0 -20 8.9541 -20 20s8.9541 20 20 20h28c18.748 0 34 15.252 34 34s-15.252 34 -34 34h-28c-11.0459 0 -20 8.9541 -20 20s8.9541 20 20 20h28c40.8037 0 74 -33.1963 74 -74zM349 138c0 -11.0459 -8.9541 -20 -20 -20h-255
c-40.8037 0 -74 33.1963 -74 74s33.1963 74 74 74h255c11.0459 0 20 -8.9541 20 -20s-8.9541 -20 -20 -20h-255c-18.748 0 -34 -15.252 -34 -34s15.252 -34 34 -34h255c11.0459 0 20 -8.9541 20 -20zM511 10c0 -40.8037 -33.1963 -74 -74 -74h-150
c-11.0459 0 -20 8.9541 -20 20s8.9541 20 20 20h150c18.748 0 34 15.252 34 34s-15.252 34 -34 34h-150c-11.0459 0 -20 8.9541 -20 20s8.9541 20 20 20h150c40.8037 0 74 -33.1963 74 -74zM227 -44c0 -11.0459 -8.9541 -20 -20 -20h-133c-40.8037 0 -74 33.1963 -74 74
s33.1963 74 74 74h133c11.0459 0 20 -8.9541 20 -20s-8.9541 -20 -20 -20h-133c-18.748 0 -34 -15.252 -34 -34s15.252 -34 34 -34h133c11.0459 0 20 -8.9541 20 -20z" />
    <glyph glyph-name="038-zoom-in" unicode="&#xf125;" 
d="M280.166 254.668c5.33594 0 9.66699 -4.33008 9.66699 -9.66602s-4.33105 -9.66699 -9.66699 -9.66699h-57.999v-57.999c0 -5.33594 -4.33105 -9.66699 -9.66699 -9.66699s-9.66602 4.33105 -9.66602 9.66699v57.999h-58c-5.33594 0 -9.66602 4.33105 -9.66602 9.66699
s4.33008 9.66602 9.66602 9.66602h58v58c0 5.33594 4.33008 9.66699 9.66602 9.66699s9.66699 -4.33105 9.66699 -9.66699v-58h57.999zM499.801 -47.6348c3.69238 -3.84668 3.57617 -9.96582 -0.270508 -13.668c-1.875 -1.79785 -4.28223 -2.69727 -6.69922 -2.69727
c-2.54199 0 -5.0752 0.986328 -6.96973 2.96777l-143.983 149.745c-35.1475 -29.1445 -80.2422 -46.709 -129.378 -46.709c-111.938 0 -202.998 91.0586 -202.998 202.998c0 111.938 91.0596 202.998 202.998 202.998c111.939 0 202.999 -91.0596 202.999 -202.998
c0 -55.8633 -22.6973 -106.517 -59.334 -143.259zM28.835 245.002c0 -101.276 82.3887 -183.665 183.665 -183.665c101.277 0 183.665 82.3887 183.665 183.665s-82.3877 183.665 -183.665 183.665c-101.276 0 -183.665 -82.3887 -183.665 -183.665z" />
    <glyph glyph-name="005-filter-results-button" unicode="&#xf104;" 
d="M199.111 21.333v56.8896h113.777v-56.8896h-113.777zM0 362.667h512v-56.8896h-512v56.8896zM85.333 163.556v56.8887h341.334v-56.8887h-341.334z" />
    <glyph glyph-name="034-garbage" unicode="&#xf121;" 
d="M469.474 374.315c7.89453 0 14.2109 -6.31543 14.2109 -14.21s-6.31641 -14.2109 -14.2109 -14.2109h-25.6846v-333.895c0 -41.8945 -34.1045 -76 -76 -76h-223.578c-41.8955 0 -76 34.1055 -76 76v333.895h-25.6846c-7.89453 0 -14.2109 6.31641 -14.2109 14.2109
s6.31641 14.21 14.2109 14.21h106.526v17.3691c0 31.0527 25.2627 56.3154 56.3154 56.3154h101.264c31.0527 0 56.3154 -25.2627 56.3154 -56.3154v-17.3691h106.526zM177.474 391.685v-17.3691h157.053v17.3691c0 15.3682 -12.5264 27.8945 -27.8945 27.8945h-101.264
c-15.3682 0 -27.8945 -12.5264 -27.8945 -27.8945zM415.368 12h0.105469v333.895h-318.842v-333.895c0 -26.2109 21.3682 -47.5791 47.5791 -47.5791h223.578c26.2109 0 47.5791 21.3682 47.5791 47.5791zM256 15.3682c-7.89453 0 -14.2109 6.4209 -14.2109 14.3164v251.053
c0 7.89453 6.31641 14.21 14.2109 14.21s14.2109 -6.31543 14.2109 -14.21v-251.158c0 -7.89453 -6.31641 -14.2109 -14.2109 -14.2109zM163.263 31.0527c-7.78906 0 -14.21 6.31543 -14.21 14.21v219.896c0 7.89453 6.31543 14.21 14.21 14.21
c7.89551 0 14.2109 -6.31543 14.2109 -14.21v-219.896c0 -7.89453 -6.31543 -14.21 -14.2109 -14.21zM348.737 31.0527c-7.89551 0 -14.2109 6.31543 -14.2109 14.21v219.896c0 7.89453 6.31543 14.21 14.2109 14.21c7.89453 0 14.21 -6.31543 14.21 -14.21v-219.896
c0 -7.89453 -6.31543 -14.21 -14.21 -14.21z" />
    <glyph glyph-name="023-envelope" unicode="&#xf116;" 
d="M449.496 386.82c34.5361 0 62.6094 -28.1797 62.5039 -62.7148v-264.316c0 -34.5361 -28.0732 -62.6094 -62.6094 -62.6094h-386.781c-34.5361 0 -62.6094 28.0732 -62.6094 62.6094v264.422c0 34.5361 28.0732 62.6094 62.6094 62.6094h386.887zM483.503 59.7891
h-0.106445v264.316c0 18.751 -15.2549 34.0059 -34.0059 34.0059h-386.781c-18.751 0 -34.0059 -15.2549 -34.0059 -34.0059v-264.316c0 -18.751 15.2549 -34.0059 34.0059 -34.0059h386.887c18.751 0 34.0068 15.2549 34.0068 34.0059zM322.9 195.284l125.748 -119.393
c5.7207 -5.40332 5.93262 -14.5137 0.530273 -20.2344c-2.86035 -2.96582 -6.56836 -4.44922 -10.3818 -4.44922c-3.49609 0 -7.09766 1.27148 -9.85254 3.91992l-127.338 120.981l-35.7012 -31.9932c-2.64844 -2.43652 -6.14453 -3.70801 -9.53418 -3.70801
c-3.39062 0 -6.78027 1.16504 -9.53516 3.60156l-34.7471 31.04l-128.08 -119.816c-2.75391 -2.54199 -6.25 -3.81348 -9.74609 -3.81348c-3.81348 0 -7.62793 1.58887 -10.4883 4.55566c-5.40234 5.82617 -5.08496 14.8311 0.635742 20.2334l126.173 118.122
l-126.702 113.248c-5.93262 5.29688 -6.46191 14.3018 -1.16504 20.2334c5.29688 5.93262 14.3018 6.46289 20.2344 1.16602l137.084 -122.677c0.847656 -0.635742 1.58887 -1.27148 2.33008 -2.0127c0 -0.106445 0.106445 -0.211914 0.211914 -0.318359l33.6885 -30.0859
l172.68 154.987c5.93262 5.29688 14.9375 4.76758 20.2344 -1.05957c5.29688 -5.93164 4.7666 -14.9365 -1.05957 -20.2334z" />
    <glyph glyph-name="053-download-1" unicode="&#xf134;" 
d="M467.939 325.392c10.0781 10.1035 26.4492 10.1035 36.502 0.0488281c10.0781 -10.1035 10.0781 -26.498 0 -36.6016l-230.179 -230.254c-10.0781 -10.1035 -26.4473 -10.1035 -36.5254 0v0v0l-230.179 230.256c-10.0781 10.1035 -10.0781 26.4727 0 36.5762
c10.1035 10.1035 26.4473 10.1035 36.5508 0l211.915 -211.992z" />
    <glyph glyph-name="007-street-view" unicode="&#xf106;" 
d="M213.504 328c-33.082 0 -60 26.9141 -60 60s26.918 60 60 60c33.0859 0 60 -26.9141 60 -60s-26.9141 -60 -60 -60zM213.504 328zM361.797 42.4336c47.582 -10.6523 70.7109 -25.8398 70.7109 -46.4336s-23.1289 -35.7812 -70.7109 -46.4336
c-39.082 -8.75 -90.6797 -13.5664 -145.293 -13.5664s-106.215 4.81641 -145.293 13.5664c-47.582 10.6523 -70.7109 25.8398 -70.7109 46.4336s23.1289 35.7812 70.7109 46.4336c9.49609 2.125 19.7344 4.01953 30.5781 5.66797
c8.23047 1.25 15.8281 -4.75 16.8672 -12.9258c1.01172 -7.95703 -4.44141 -15.5391 -12.4531 -16.7539c-6.94141 -1.05859 -13.6094 -2.21484 -19.9531 -3.47656c-34.9414 -6.9375 -49.8438 -14.8984 -54.5352 -18.9453
c4.69141 -4.04688 19.5938 -12.0078 54.5352 -18.9453c35.8945 -7.12891 82.1523 -11.0547 130.254 -11.0547s94.3555 3.92578 130.25 11.0508c34.9414 6.94141 49.8477 14.9023 54.5391 18.9492c-4.69141 4.04688 -19.5977 12.0078 -54.5391 18.9453
c-8.09766 1.60938 -16.7266 3.05469 -25.7812 4.32812c-8.14062 1.14453 -13.6406 8.86328 -12.5703 16.9102c1.07031 8.06641 8.62891 13.9492 16.7383 12.8086c13.1055 -1.84766 25.4023 -4.03906 36.6562 -6.55859zM361.797 42.4336zM147.992 142.688
c-14.9883 7.42578 -24.9531 22.8086 -24.9531 40.3125v70c0 24.8125 20.1875 45 45 45h90.9297c24.8125 0 45 -20.1875 45 -45v-70c0 -17.5039 -9.96094 -32.8867 -24.9531 -40.3125v-104.688c0 -24.8125 -20.1875 -45 -45 -45h-41.0234c-24.8125 0 -45 20.1875 -45 45
v104.688zM147.992 142.688z" />
    <glyph glyph-name="071-menu-1" unicode="&#xf146;" 
d="M69.332 341.332h-32c-20.5859 0 -37.332 16.7461 -37.332 37.3359v32c0 20.5859 16.7461 37.332 37.332 37.332h32c20.5898 0 37.3359 -16.7461 37.3359 -37.332v-32c0 -20.5898 -16.7461 -37.3359 -37.3359 -37.3359zM37.332 416
c-2.94141 0 -5.33203 -2.39062 -5.33203 -5.33203v-32c0 -2.94531 2.39062 -5.33594 5.33203 -5.33594h32c2.94531 0 5.33594 2.39062 5.33594 5.33594v32c0 2.94141 -2.39062 5.33203 -5.33594 5.33203h-32zM37.332 416zM69.332 170.668h-32
c-20.5859 0 -37.332 16.7461 -37.332 37.332v32c0 20.5859 16.7461 37.332 37.332 37.332h32c20.5898 0 37.3359 -16.7461 37.3359 -37.332v-32c0 -20.5859 -16.7461 -37.332 -37.3359 -37.332zM37.332 245.332c-2.94141 0 -5.33203 -2.38672 -5.33203 -5.33203v-32
c0 -2.94531 2.39062 -5.33203 5.33203 -5.33203h32c2.94531 0 5.33594 2.38672 5.33594 5.33203v32c0 2.94531 -2.39062 5.33203 -5.33594 5.33203h-32zM37.332 245.332zM69.332 0h-32c-20.5859 0 -37.332 16.7461 -37.332 37.332v32
c0 20.5898 16.7461 37.3359 37.332 37.3359h32c20.5898 0 37.3359 -16.7461 37.3359 -37.3359v-32c0 -20.5859 -16.7461 -37.332 -37.3359 -37.332zM37.332 74.668c-2.94141 0 -5.33203 -2.39062 -5.33203 -5.33594v-32c0 -2.94141 2.39062 -5.33203 5.33203 -5.33203h32
c2.94531 0 5.33594 2.39062 5.33594 5.33203v32c0 2.94531 -2.39062 5.33594 -5.33594 5.33594h-32zM37.332 74.668zM496 378.668h-330.668c-8.83203 0 -16 7.16797 -16 16s7.16797 16 16 16h330.668c8.83203 0 16 -7.16797 16 -16s-7.16797 -16 -16 -16zM496 378.668z
M496 208h-330.668c-8.83203 0 -16 7.16797 -16 16s7.16797 16 16 16h330.668c8.83203 0 16 -7.16797 16 -16s-7.16797 -16 -16 -16zM496 208zM496 37.332h-330.668c-8.83203 0 -16 7.16797 -16 16s7.16797 16 16 16h330.668c8.83203 0 16 -7.16797 16 -16
s-7.16797 -16 -16 -16zM496 37.332z" />
    <glyph glyph-name="006-pin" unicode="&#xf105;" 
d="M176.598 101.392c-21.9062 30.2295 -41.625 61.9863 -59.0039 95.0254c-17.3623 34.1377 -26.1572 61.7842 -26.1572 82.1621c-0.0898438 43.7207 17.2383 85.6768 48.1533 116.593c30.8652 30.8896 72.7412 48.2441 116.409 48.2441
c43.5508 -0.371094 85.2148 -17.8271 116.027 -48.6084l0.0820312 -0.0820312l0.137695 -0.119141c30.8066 -30.7715 48.1787 -72.4902 48.3174 -116.034c0 -20.3789 -8.77832 -48.0254 -26.1484 -82.1445c-17.3809 -33.0596 -37.1025 -64.833 -59.0137 -95.0811
c-22.6914 -31.915 -44.7881 -59.8545 -59.3701 -77.709c-3.12695 -3.88672 -6.08008 -7.44238 -8.76758 -10.6787l-4.26074 -5.16602c-1.76953 -1.97656 -4.29004 -3.11328 -6.94238 -3.13086s-5.18848 1.08594 -6.98242 3.03906l-4.34277 5.25684
c-2.6875 3.23633 -5.6416 6.79297 -8.80469 10.7246c-14.5361 17.8359 -36.6416 45.7754 -59.333 77.709zM191.354 352.643c-26.1475 -26.1465 -33.9697 -65.4707 -19.8184 -99.6328c14.1504 -34.1631 47.4883 -56.4385 84.4648 -56.4385s70.3145 22.2754 84.4648 56.4385
c14.1494 34.1631 6.32812 73.4863 -19.8193 99.6328c-2.2959 2.37598 -5.69434 3.3291 -8.8916 2.49219s-5.69238 -3.33203 -6.5293 -6.5293s0.115234 -6.5957 2.49219 -8.8916c24.6738 -24.6719 28.4834 -63.3369 9.09863 -92.3496
c-19.3848 -29.0137 -56.5645 -40.292 -88.8008 -26.9404c-32.2363 13.3506 -50.5527 47.6162 -43.7471 81.8379c6.80566 34.2227 36.8389 58.8721 71.7314 58.873c5.0498 0 9.14258 4.09375 9.14258 9.14258c0 5.0498 -4.09375 9.14258 -9.14258 9.14258
c-24.2598 0.0644531 -47.5371 -9.57812 -64.6455 -26.7773zM510.878 -46.166c1.52246 -2.58496 1.49316 -5.79785 -0.0722656 -8.35645c-1.86035 -3.11133 -5.25195 -4.97949 -8.87695 -4.89062h-491.859c-3.63184 -0.0810547 -7.02539 1.80176 -8.87695 4.92773
c-1.57031 2.56836 -1.5918 5.79492 -0.0556641 8.38379l56.2441 100.565c1.8457 3.1543 5.25977 5.05859 8.91309 4.97363h118.394c14.3262 -19.0166 27.3643 -35.3994 37.0361 -47.2383c2.24023 -2.77051 4.2334 -5.1748 6.25391 -7.61621h-45.1172
c-5.0498 0 -9.14258 -4.09375 -9.14258 -9.14258c0 -5.0498 4.09375 -9.14258 9.14258 -9.14258h72.8906h0.24707h0.24707h72.8916c5.0498 0 9.14258 4.09375 9.14258 9.14258c0 5.0498 -4.09375 9.14258 -9.14258 9.14258h-45.126
c2.02051 2.44141 4.00488 4.82715 6.20703 7.57031c9.66406 11.876 22.7559 28.2676 37.0918 47.2842h118.393c3.6748 0.0791016 7.09961 -1.85352 8.93262 -5.03809zM128.006 -41.1279c5.04883 0 9.14258 4.09277 9.14258 9.14258s-4.09375 9.14258 -9.14258 9.14258
h-73.1387c-5.0498 0 -9.14258 -4.09277 -9.14258 -9.14258s4.09375 -9.14258 9.14258 -9.14258h73.1387zM153.896 -0.490234c1.3457 2.0166 1.83594 4.48633 1.36035 6.86426s-1.875 4.46973 -3.89355 5.81543l-27.4268 18.2852
c-1.50391 0.999023 -3.26953 1.5332 -5.07422 1.53613h-36.5684c-5.0498 0 -9.14258 -4.09375 -9.14258 -9.14258c0 -5.0498 4.09375 -9.14258 9.14258 -9.14258h33.8271l25.0947 -16.749c2.01758 -1.3457 4.4873 -1.83496 6.86523 -1.35938
c2.37793 0.474609 4.46973 1.87402 5.81543 3.89258zM365.707 -4.55957c1.79688 0.00488281 3.55176 0.539062 5.0459 1.53613l25.123 16.749h33.8271c5.0498 0 9.14258 4.09375 9.14258 9.14258c0 5.0498 -4.09375 9.14258 -9.14258 9.14258h-36.5684
c-1.80859 -0.000976562 -3.57617 -0.535156 -5.08301 -1.53613l-27.4277 -18.2852c-3.35352 -2.23535 -4.84766 -6.4043 -3.67676 -10.2607c1.1709 -3.8584 4.72852 -6.49316 8.75977 -6.48828zM457.13 -41.1279c5.0498 0 9.14258 4.09277 9.14258 9.14258
s-4.09375 9.14258 -9.14258 9.14258h-73.1387c-5.0498 0 -9.14258 -4.09277 -9.14258 -9.14258s4.09375 -9.14258 9.14258 -9.14258h73.1387z" />
    <glyph glyph-name="014-heartbeat" unicode="&#xf10d;" 
d="M376 415c76.9629 0 136 -62.4463 136 -145.268c0 -21.6104 -4.32715 -41.5615 -12.2939 -60.7324h-114.434l-25.8545 51.708c-5.09766 10.166 -21.7383 10.166 -26.8359 0l-46.582 -93.1641l-16.582 33.1641c-5.09766 10.166 -21.7383 10.166 -26.8359 0
l-16.582 -33.1641l-46.582 93.165c-5.09766 10.166 -21.7383 10.166 -26.8359 0l-25.8545 -51.709h-114.434c-7.9668 19.1709 -12.2939 39.1221 -12.2939 60.7324c0 82.8213 59.0371 145.268 136 145.268c60.6592 0 99.5947 -42.0107 120 -79.8486
c20.4053 37.8369 59.3408 79.8486 120 79.8486zM376 179h107.961c-30.873 -48.5742 -86.4727 -94.7129 -156.024 -153.413c-19.5254 -16.4795 -40.2969 -34.0137 -62.1084 -52.9248c-2.82715 -2.44629 -6.32812 -3.66211 -9.8291 -3.66211s-7.00195 1.21582 -9.8291 3.66211
c-21.8105 18.9111 -42.583 36.4463 -62.1094 52.9248c-69.5498 58.7002 -125.15 104.839 -156.023 153.413h107.963c5.68359 0 10.8691 3.20801 13.418 8.29102l16.582 33.1641l46.582 -93.1641c5.09766 -10.166 21.7383 -10.166 26.8359 0l16.582 33.1641l16.582 -33.1641
c2.54883 -5.08301 7.73438 -8.29102 13.418 -8.29102s10.8691 3.20801 13.418 8.29102l46.582 93.1641l16.582 -33.1641c2.54883 -5.08301 7.73438 -8.29102 13.418 -8.29102z" />
    <glyph glyph-name="039-drop-down-arrow" unicode="&#xf126;" 
d="M0 320h512l-256 -256z" />
    <glyph glyph-name="054-upload" unicode="&#xf135;" 
d="M274.261 325.08l230.18 -229.593c10.0771 -10.0508 10.0771 -26.3926 0 -36.4697c-10.1025 -10.0771 -26.4443 -10.0771 -36.5469 0l-211.895 211.356l-211.92 -211.331c-10.0771 -10.0771 -26.4443 -10.0771 -36.5215 0c-10.0771 10.0518 -10.0771 26.3936 0 36.4707
l230.156 229.566c9.97461 9.9502 26.5977 9.9502 36.5469 0z" />
    <glyph glyph-name="042-transfer-1" unicode="&#xf129;" 
d="M503.464 47.6729c0 -7.11719 -5.75586 -12.7686 -12.6641 -12.7686h-438.318l77.0303 -77.0303c5.02344 -5.02344 5.02344 -13.083 0 -18.1064c-2.5127 -2.51172 -5.75684 -3.76758 -9.10547 -3.76758c-3.34961 0 -6.59375 1.25586 -9.10547 3.76758l-98.9043 98.9043
c-5.02441 5.02441 -5.02441 13.083 0 18.1064l98.9043 98.9043c5.02344 5.02344 13.082 5.02344 18.1055 0c5.02441 -5.02344 5.02441 -13.082 0 -18.1064l-77.0303 -77.0303h438.215c7.11719 0 12.873 -5.75586 12.873 -12.873zM499.696 345.433
c5.02344 -5.02344 5.02344 -13.1875 0.104492 -18.1064l-98.9043 -98.9043c-2.51172 -2.51172 -5.75684 -3.76758 -9.10547 -3.76758c-3.34961 0 -6.59375 1.25586 -9.10547 3.76758c-5.02344 5.02344 -5.02344 13.083 0 18.1064l77.0303 76.8213h-438.319
c-7.11621 0 -12.873 5.75586 -12.873 12.873c0 7.11621 5.75684 12.873 12.873 12.873h438.319l-77.0303 77.0303c-5.02344 5.02344 -5.02344 13.083 0 18.1064s13.082 5.02344 18.1064 0z" />
    <glyph glyph-name="064-caret-down" unicode="&#xf13f;" 
d="M502.496 326.503c6.32715 -6.34082 9.50391 -13.8379 9.50391 -22.5029c0 -8.66699 -3.17676 -16.1641 -9.50391 -22.499l-223.998 -223.999c-6.3291 -6.33398 -13.833 -9.50586 -22.498 -9.50586s-16.1621 3.17188 -22.5039 9.50586l-223.997 223.998
c-6.33496 6.33594 -9.49902 13.833 -9.49902 22.498c0 8.66699 3.16406 16.1641 9.49902 22.5049c6.33398 6.33496 13.8311 9.49902 22.5029 9.49902h447.994c8.66797 0 16.1709 -3.16406 22.5 -9.49902z" />
    <glyph glyph-name="002-percent" unicode="&#xf101;" 
d="M377.035 431.352c14.3613 -7.30176 20.084 -24.8604 12.7822 -39.2217l-216.946 -426.701c-5.15039 -10.126 -15.3965 -15.9561 -26.0254 -15.9561c-4.44824 0 -8.96191 1.02051 -13.1973 3.17383c-14.3613 7.30176 -20.084 24.8604 -12.7822 39.2217l216.946 426.701
c7.30273 14.3633 24.8652 20.0869 39.2227 12.7822zM221.26 290.836c0 -61 -49.6279 -110.629 -110.63 -110.629c-61 0 -110.63 49.6289 -110.63 110.629c0 61.0029 49.6299 110.632 110.628 110.632c61.002 0 110.632 -49.6289 110.632 -110.632zM110.63 238.547
c28.833 0 52.29 23.458 52.292 52.2891c0 28.8359 -23.459 52.292 -52.292 52.292c-28.832 0 -52.29 -23.458 -52.29 -52.292c0 -28.8311 23.458 -52.2891 52.29 -52.2891zM401.37 203.789c61.002 0 110.63 -49.627 110.63 -110.629
c0 -61.0029 -49.6299 -110.63 -110.63 -110.63c-61.0039 0 -110.632 49.6289 -110.632 110.63c0 61 49.6299 110.629 110.632 110.629zM401.37 40.8721c28.834 0 52.29 23.458 52.29 52.29c0 28.8311 -23.458 52.2891 -52.29 52.2891
c-28.833 0 -52.292 -23.458 -52.292 -52.2891c0 -28.832 23.459 -52.29 52.292 -52.29z" />
    <glyph glyph-name="033-edit" unicode="&#xf120;" 
d="M478.836 414.833c21.3818 -21.2725 33.1641 -49.6367 33.1641 -79.8555c0 -30.2178 -11.7822 -58.582 -33.1641 -79.9639l-293.02 -292.91c-2.72754 -2.83691 -6.54492 -4.36426 -10.3633 -4.36426s-7.63672 1.63672 -10.3643 4.36426l-118.037 118.037
l-15.1631 -112.146l77.6729 10.4727c8.07324 1.09082 15.4912 -4.58105 16.582 -12.6543s-4.58203 -15.4912 -12.6543 -16.582l-96.874 -13.0908c-0.654297 -0.109375 -1.30859 -0.109375 -1.96289 -0.109375c-3.81836 0 -7.63672 1.63672 -10.3643 4.36426
c-3.16309 3.16309 -4.7998 7.74512 -4.14551 12.3271l21.71 160.801c0.435547 3.16309 1.85449 6.10938 4.14551 8.40039l293.02 292.91c44.0723 44.1816 115.746 44.1816 159.818 0zM324.69 378.833l-267.384 -267.384l49.2002 -49.2002l267.384 267.384zM175.562 -6.69629
l267.384 267.383l-48.1094 48.1094l-267.384 -267.383zM463.454 281.741c12.3271 14.9453 19.0908 33.4912 19.0908 53.2363c0 22.3643 -8.61816 43.4189 -24.4365 59.1279c-15.8174 15.709 -36.7637 24.4365 -59.127 24.4365
c-19.6367 0 -38.291 -6.76367 -53.2373 -19.0908z" />
    <glyph glyph-name="055-left-arrow-1" unicode="&#xf136;" 
d="M167.009 366.568c7.21777 7.21777 18.582 7.21777 25.7998 0c6.97461 -6.97461 6.97461 -18.582 0 -25.54l-130.82 -130.82h431.69c10.0625 0 18.3213 -7.99902 18.3213 -18.0615c0 -10.0635 -8.25879 -18.3223 -18.3213 -18.3223h-431.69l130.82 -130.576
c6.97461 -7.21875 6.97461 -18.8418 0 -25.7998c-7.21777 -7.21875 -18.582 -7.21875 -25.7998 0l-161.79 161.79c-6.97461 6.97461 -6.97461 18.582 0 25.54z" />
    <glyph glyph-name="061-building" unicode="&#xf13c;" 
d="M454.624 428.484c0.759766 -1.12109 1.37598 -3.12988 1.37598 -4.48438c0 -0.850586 -0.256836 -2.18164 -0.572266 -2.9707l-15.4277 -38.5703v-422.459v0c0 -4.41602 -3.58398 -8 -8 -8v0h-368v0c-4.41602 0 -8 3.58398 -8 8v0v32v0c0 4.41602 3.58398 8 8 8v0h24v24
v0c0 4.41602 3.58398 8 8 8v0h16v350.459l-15.4277 38.5703c-0.31543 0.789062 -0.572266 2.12012 -0.572266 2.9707c0 4.41602 3.58398 8 8 8h344c2.34277 0 5.31055 -1.5752 6.62402 -3.51562zM436.184 416h-320.367l9.59961 -24h301.168zM104 16v-16h136v16h-136zM208 32
v96h-40v-96h40zM72 -16v-16h168v16h-168zM256 -32h168v32h-40v16h40v128h-24v16h24v88h-24v16h24v112h-296v-16h16v-16h-16v-176h16v-16h-16v-120h24v104v0c0 4.41602 3.58398 8 8 8v0h56v0c4.41602 0 8 -3.58398 8 -8v0v-104h24v0c4.41602 0 8 -3.58398 8 -8v0v-24h32v-16
h-32v-16zM208 248v0c4.41602 0 8 -3.58398 8 -8v0v-64v0c0 -4.41602 -3.58398 -8 -8 -8v0h-40v0c-4.41602 0 -8 3.58398 -8 8v0v64v0c0 4.41602 3.58398 8 8 8v0h40zM200 184v48h-24v-48h24zM208 352v0c4.41602 0 8 -3.58398 8 -8v0v-64v0c0 -4.41602 -3.58398 -8 -8 -8v0
h-40v0c-4.41602 0 -8 3.58398 -8 8v0v64v0c0 4.41602 3.58398 8 8 8v0h40zM200 288v48h-24v-48h24zM296 248v0c4.41602 0 8 -3.58398 8 -8v0v-64v0c0 -4.41602 -3.58398 -8 -8 -8v0h-40v0c-4.41602 0 -8 3.58398 -8 8v0v64v0c0 4.41602 3.58398 8 8 8v0h40zM288 184v48h-24
v-48h24zM296 352v0c4.41602 0 8 -3.58398 8 -8v0v-64v0c0 -4.41602 -3.58398 -8 -8 -8v0h-40v0c-4.41602 0 -8 3.58398 -8 8v0v64v0c0 4.41602 3.58398 8 8 8v0h40zM288 288v48h-24v-48h24zM344 168v0c-4.41602 0 -8 3.58398 -8 8v0v64v0c0 4.41602 3.58398 8 8 8v0h40v0
c4.41602 0 8 -3.58398 8 -8v0v-64v0c0 -4.41602 -3.58398 -8 -8 -8v0h-40zM352 232v-48h24v48h-24zM296 144v0c4.41602 0 8 -3.58398 8 -8v0v-64v0c0 -4.41602 -3.58398 -8 -8 -8v0h-40v0c-4.41602 0 -8 3.58398 -8 8v0v64v0c0 4.41602 3.58398 8 8 8v0h40zM288 80v48h-24
v-48h24zM344 64v0c-4.41602 0 -8 3.58398 -8 8v0v64v0c0 4.41602 3.58398 8 8 8v0h40v0c4.41602 0 8 -3.58398 8 -8v0v-64v0c0 -4.41602 -3.58398 -8 -8 -8v0h-40zM352 128v-48h24v48h-24zM344 272v0c-4.41602 0 -8 3.58398 -8 8v0v64v0c0 4.41602 3.58398 8 8 8v0h40v0
c4.41602 0 8 -3.58398 8 -8v0v-64v0c0 -4.41602 -3.58398 -8 -8 -8v0h-40zM352 336v-48h24v48h-24zM360 48h24v-16h-24v16zM328 8h24v-16h-24v16zM224 272h24v-16h-24v16zM288 32h16v-16h-16v16z" />
    <glyph glyph-name="027-magnifying-glass" unicode="&#xf11a;" 
d="M507.516 -37.8887c5.90332 -5.90332 5.90332 -15.667 0 -21.5703c-2.95117 -3.06543 -6.9248 -4.54102 -10.7852 -4.54102c-3.85938 0 -7.83301 1.58984 -10.7842 4.54102l-124.425 124.424c-38.3711 -33.376 -88.4355 -53.584 -143.155 -53.584
c-120.337 0 -218.31 97.9727 -218.31 218.31s97.8594 218.31 218.31 218.31c120.337 0 218.31 -97.8594 218.31 -218.31c0 -54.7197 -20.207 -104.784 -53.584 -143.155zM30.5947 229.69c0 -103.535 84.2363 -187.771 187.658 -187.771
c103.535 0 187.657 84.3496 187.657 187.771s-84.1221 187.657 -187.657 187.657c-103.422 0 -187.658 -84.1221 -187.658 -187.657z" />
    <glyph glyph-name="029-box" unicode="&#xf11c;" 
d="M470.573 78.1631c1.9502 -5.28516 -0.75293 -11.1504 -6.03809 -13.0996l-106.072 -39.1396c-1.16504 -0.428711 -2.35742 -0.632812 -3.53027 -0.632812c-4.14941 0 -8.04883 2.55078 -9.56934 6.6709c-1.9502 5.28516 0.75293 11.1504 6.03809 13.0996l106.071 39.1396
c5.28516 1.9502 11.1494 -0.75293 13.1006 -6.03809zM335.337 28.2617c1.9502 -5.28516 -0.753906 -11.1484 -6.03809 -13.0986l-4.49219 -1.65723c-1.16504 -0.428711 -2.35742 -0.632812 -3.5293 -0.632812c-4.15039 0 -8.05078 2.55176 -9.57031 6.67188
c-1.9502 5.28418 0.753906 11.1494 6.03809 13.0986l4.49219 1.65723c5.28516 1.9502 11.1504 -0.75293 13.0996 -6.03906zM470.573 119.724c1.9502 -5.28418 -0.75293 -11.1494 -6.03809 -13.0996l-83.8252 -30.9297
c-1.16504 -0.429688 -2.3584 -0.633789 -3.53027 -0.633789c-4.14941 0 -8.04883 2.55176 -9.56934 6.67188c-1.9502 5.28418 0.75293 11.1494 6.03809 13.0996l83.8242 30.9297c5.28516 1.94824 11.1494 -0.75293 13.1006 -6.03809zM470.573 160.853
c1.9502 -5.28418 -0.75293 -11.1494 -6.03809 -13.0996l-83.8252 -30.9297c-1.16504 -0.429688 -2.3584 -0.632812 -3.53027 -0.632812c-4.14941 0 -8.04883 2.55078 -9.56934 6.6709c-1.9502 5.28516 0.75293 11.1494 6.03809 13.0996l83.8242 30.9297
c5.28516 1.94824 11.1494 -0.75293 13.1006 -6.03809zM505.332 347.472c4.00684 -1.47852 6.66797 -5.29688 6.66797 -9.56836v-291.807c0 -4.27148 -2.66113 -8.08984 -6.66797 -9.56836l-245.801 -90.6963l-0.00390625 0.00585938
c-1.13281 -0.417969 -2.32715 -0.635742 -3.52832 -0.635742c-1.18945 0 -2.38379 0.207031 -3.53027 0.629883l-245.801 90.6963c-4.00684 1.47852 -6.66797 5.29785 -6.66797 9.56836v291.807c0 3.33496 1.63086 6.45996 4.36816 8.36816
c0.719727 0.500977 1.49414 0.894531 2.29883 1.19238l0.00195312 0.0078125l245.801 90.6963c2.27832 0.839844 4.78223 0.839844 7.06152 0zM245.801 -29.9648h-0.00195312v270.062l-48.9561 18.0645v-116.053c0 -3.33496 -1.63086 -6.45996 -4.36719 -8.36719
c-1.73438 -1.20898 -3.77441 -1.83203 -5.83301 -1.83203c-1.18848 0 -2.38379 0.207031 -3.5293 0.629883l-110.151 40.6445c-4.00684 1.47949 -6.66797 5.29883 -6.66797 9.56934v123.578l-45.8955 16.9355v-270.062zM176.446 265.689l-89.7529 33.1172v-108.942
l89.7529 -33.1182v108.943zM105.957 313.523l80.6875 -29.7734l80.6885 29.7734l-80.6885 29.7725zM256 258.078l216.337 79.8242l-216.337 79.8242l-216.337 -79.8232l36.7197 -13.5508l106.731 39.3848c2.2793 0.839844 4.7832 0.839844 7.06152 0l110.152 -40.6445
c4.00684 -1.47852 6.66797 -5.29688 6.66797 -9.56836c0 -4.27246 -2.66113 -8.09082 -6.66797 -9.56934l-84.3291 -31.1172zM491.602 53.2051v270.062l-225.401 -83.1699v-270.062z" />
    <glyph glyph-name="037-transfer" unicode="&#xf124;" 
d="M403.144 433.165c29.3555 0 53.2793 -24.0273 53.5928 -53.3828v-35.5195c0 -7.10352 -5.74609 -12.8496 -12.8496 -12.8496c-7.10449 0 -12.8496 5.74609 -12.8496 12.8496v35.5195c0 15.3564 -12.4316 27.7881 -27.7891 27.7881h-294.078
c-15.3574 0 -27.7891 -12.4316 -27.7891 -27.7881v-243.621l33.8477 33.8486c5.01465 5.01367 13.0586 5.01367 18.0732 0c5.01465 -5.01465 5.01465 -13.0586 0 -18.0732l-55.6816 -55.6816c-2.50684 -2.50781 -5.74609 -3.76074 -9.08887 -3.76074
s-6.58105 1.25293 -9.08887 3.76074l-55.6816 55.6816c-5.01465 5.01465 -5.01465 13.0586 0 18.0732c5.01465 5.01367 13.0586 5.01367 18.0732 0l33.7432 -33.7441v243.517c0 29.46 23.9238 53.3828 53.3838 53.3828h294.183zM434.589 287.641
c4.80566 4.80566 13.3721 4.80566 17.9688 0l55.6816 -55.6816c5.01465 -5.01465 5.01465 -13.0586 0 -18.0732c-5.01465 -5.01367 -13.0586 -5.01367 -18.0732 0l-33.8477 33.8486v-243.517c0 -29.46 -23.9229 -53.3828 -53.3838 -53.3828h-294.078
c-29.46 0 -53.3838 23.9229 -53.3838 53.3828v35.5195c0 7.10352 5.74609 12.8496 12.8496 12.8496s12.8496 -5.74609 12.8496 -12.8496v-35.5195c0 -15.3564 12.4316 -27.7881 27.7891 -27.7881h294.183c15.3574 0 27.7891 12.4316 27.7891 27.7881v243.517
l-33.8477 -33.8486c-2.50781 -2.50684 -5.74609 -3.76074 -9.08887 -3.76074s-6.58203 1.25391 -9.08887 3.76074c-5.01465 5.01465 -5.01465 13.0586 0 18.0732zM256.052 305.191c7.10449 0 12.7461 -5.74512 12.8506 -12.7451v-19.6396h23.6094
c7.10352 0 12.8496 -5.74609 12.8496 -12.8496c0 -7.10449 -5.74609 -12.8496 -12.8496 -12.8496h-50.876c-10.3428 0 -18.8047 -9.50684 -18.8047 -21.1025c0 -11.5967 8.46191 -21.1025 18.8047 -21.1025h28.833c24.4453 0 44.3994 -20.8945 44.3994 -46.6982
c0 -25.4902 -19.5361 -46.3838 -43.7725 -46.6973h-0.313477h-1.87988v-20.0576c0 -7.10352 -5.74609 -12.8496 -12.8506 -12.8496c-7.10352 0 -12.8496 5.74609 -12.8496 12.8496v19.9531h-24.6543c-7.10352 0 -12.8496 5.74609 -12.8496 12.8496
c0 7.10449 5.74609 12.8496 12.8496 12.8496h51.8164c10.3428 0 18.8047 9.40234 18.8047 21.1025c0 11.5967 -8.46191 21.1025 -18.8047 21.1025h-28.833c-24.4453 0 -44.3994 20.999 -44.3994 46.6982s19.9541 46.6973 44.3994 46.6973h1.6709v19.6396
c0 7.10449 5.74609 12.8496 12.8496 12.8496z" />
    <glyph glyph-name="049-plus" unicode="&#xf130;" 
d="M492 212c11.0459 0 20 -8.9541 20 -20s-8.9541 -20 -20 -20h-216v-216c0 -11.0459 -8.9541 -20 -20 -20s-20 8.9541 -20 20v216h-216c-11.0459 0 -20 8.9541 -20 20s8.9541 20 20 20h216v216c0 11.0459 8.9541 20 20 20s20 -8.9541 20 -20v-216h216z" />
    <glyph glyph-name="057-download-arrow" unicode="&#xf138;" 
d="M430.773 103.089l-161.851 -161.868c-7.22168 -6.97754 -18.835 -6.97754 -25.8125 0l-161.867 161.868c-6.97852 7.2207 -6.97852 18.5898 0 25.8115c7.2207 6.97754 18.5898 6.97754 25.8115 0l130.623 -130.883v431.912c0 10.0684 8.2627 18.0703 18.3301 18.0703
c10.0684 0 18.0703 -8.00195 18.0703 -18.0703v-431.912l130.883 130.883c6.96191 6.97754 18.5908 6.97754 25.8125 0c6.97754 -7.22168 6.97754 -18.5908 0 -25.8115z" />
    <glyph glyph-name="018-download" unicode="&#xf111;" 
d="M497.331 197.922c8.14941 0 14.6689 -6.62793 14.6689 -14.6689v-133.433c0 -52.374 -42.5938 -95.0771 -95.0762 -95.0771h-321.848c-52.373 0 -95.0762 42.5947 -95.0762 95.0771v135.605c0 8.14941 6.51953 14.6689 14.6689 14.6689
s14.6689 -6.51953 14.6689 -14.6689v-135.605c0 -36.1836 29.4463 -65.7393 65.7383 -65.7393h321.848c36.1836 0 65.7383 29.4473 65.7383 65.7393v133.433c0 8.14941 6.51953 14.6689 14.6689 14.6689zM245.678 71.2256l-93.3379 93.2295
c-5.75879 5.75879 -5.75879 14.9951 0 20.7539s14.9941 5.75879 20.7539 0l68.2373 -68.2383v297.617c0 8.14941 6.51953 14.6689 14.6689 14.6689s14.6689 -6.51953 14.6689 -14.6689v-297.617l68.1289 68.2383c5.75879 5.75879 14.9951 5.75879 20.7539 0
s5.75879 -14.9951 0 -20.7539l-93.2295 -93.2295c-2.8252 -2.93359 -6.62793 -4.3457 -10.3223 -4.3457s-7.49707 1.52051 -10.3223 4.3457z" />
    <glyph glyph-name="062-placeholder" unicode="&#xf13d;" 
d="M256 448c99.252 0 180 -80.748 180 -180c0 -32.5391 -8.7793 -64.4277 -25.3887 -92.2197l-139.243 -232.488c-2.6875 -4.48828 -7.51953 -7.25098 -12.75 -7.29199h-0.119141c-5.18555 0 -10.0078 2.67969 -12.7451 7.09082l-142.885 230.257
c-17.5801 28.3926 -26.8691 61.1182 -26.8691 94.6523c0 99.252 80.748 180 180 180zM384.866 191.182c13.8232 23.1299 21.2334 49.6973 21.2334 76.8184c0 82.71 -67.3896 150.2 -150.1 150.2s-150.2 -67.4902 -150.2 -150.2
c0 -27.9502 7.93457 -55.2139 22.5674 -78.8457l129.905 -209.34zM256 358c49.626 0 90 -40.374 90 -90c0 -48.7666 -39.0967 -90 -90 -90c-50.2832 0 -90 40.6914 -90 90c0 49.626 40.374 90 90 90zM256 207.8c33.7842 0 60.0996 27.5176 60.0996 60.2002
c0 33.084 -27.0156 60.2002 -60.0996 60.2002s-60.2002 -27.1162 -60.2002 -60.2002c0 -33.167 26.9434 -60.2002 60.2002 -60.2002z" />
    <glyph glyph-name="017-document" unicode="&#xf110;" 
d="M278.047 233.759c6.74316 -3.63086 11.9307 -9.33691 16.0811 -17.1182c3.63086 -7.2627 5.1875 -15.5625 5.1875 -24.9004c0 -7.26172 -1.03809 -13.4873 -3.11328 -19.1934c-2.07422 -5.70605 -5.18652 -10.8936 -8.81836 -15.043
c-3.63086 -4.15039 -8.2998 -7.78125 -14.0059 -9.85645s-11.9307 -3.1123 -19.1934 -3.1123s-13.4873 1.55566 -19.1934 3.63086c-5.70605 2.59375 -10.375 5.70605 -14.0068 9.85645c-4.14941 4.14941 -6.74316 9.33691 -8.81836 15.043
c-2.0752 5.70703 -3.1123 12.4502 -3.1123 19.1943c0 7.26172 1.03711 13.4873 3.1123 19.7119c2.0752 5.70605 5.1875 10.8936 8.81836 15.0439c3.63184 4.14941 8.30078 7.26172 14.0068 9.33691s11.9307 3.1123 18.6748 3.1123
c9.33691 0 17.6367 -2.0752 24.3809 -5.70605zM276.49 174.104c2.0752 5.1875 3.63086 11.4121 3.63086 18.6748c0 6.74316 -1.03711 12.9688 -3.1123 17.6367c-2.07422 4.66895 -5.1875 8.2998 -9.33691 10.8936c-4.15039 2.59375 -8.81836 3.63184 -14.0059 3.63184
c-3.63184 0 -7.2627 -0.518555 -10.375 -2.0752s-6.22559 -3.63086 -8.2998 -6.22461c-2.0752 -2.59375 -3.63184 -6.22559 -5.1875 -10.375c-1.55664 -4.15039 -2.0752 -8.81836 -2.0752 -14.0059s1.03711 -9.85645 2.0752 -14.0068
c1.55566 -4.14941 3.1123 -7.78125 5.70605 -10.374c2.59375 -2.59375 5.1875 -4.66895 8.2998 -6.22559c3.1123 -1.55566 6.74316 -2.0752 10.375 -2.0752c4.66895 0 8.81836 1.03809 12.9688 3.63184c3.63086 2.0752 6.74316 5.70605 9.33691 10.8936zM448.194 345.808
c0.518555 -1.55664 1.03809 -3.1123 1.03809 -5.1875v-369.346c0 -9.33691 -4.15039 -18.6748 -10.375 -24.8994c-6.22559 -6.22461 -15.0439 -10.375 -24.9004 -10.375h-315.914c-9.33789 0 -18.6748 4.15039 -24.9004 10.375l-0.518555 0.518555
c-6.22461 6.22461 -9.85645 15.0439 -9.85645 24.3809v441.451c0 9.33691 4.15039 18.6748 10.375 24.8994c6.22559 6.22461 15.0439 10.375 24.9004 10.375h244.328c2.07422 0 3.63086 0 5.1875 -1.03711c0 -0.519531 0.518555 -0.519531 0.518555 -0.519531
c0 -0.518555 0.518555 -0.518555 0.518555 -0.518555l0.518555 -0.518555l98.5615 -98.5615v-0.518555zM352.227 410.65v-43.0557c0 -4.15039 2.0752 -8.2998 4.66895 -10.8936c2.59375 -3.1123 6.74414 -4.66895 10.8936 -4.66895h43.0557zM426.926 -28.7256v358.971
h-58.0986c-10.375 0 -20.2314 4.15039 -26.9746 10.8936c-7.2627 7.2627 -11.4131 16.5996 -11.4131 26.9746v58.6182h-232.396c-3.63184 0 -6.74414 -1.55664 -9.33789 -4.14941c-2.59375 -2.59375 -4.14941 -5.70703 -4.14941 -9.33789v-441.97
c0 -3.1123 1.55566 -6.22461 3.63086 -8.81836l0.518555 -0.518555c2.59375 -2.59375 5.70605 -4.15039 9.33789 -4.15039h315.396c3.63184 0 6.74414 1.55664 9.33789 4.15039s4.14941 5.70605 4.14941 9.33691zM337.184 236.353
c5.70605 2.0752 11.4121 3.1123 15.043 3.1123c7.2627 0 14.0068 -1.55566 19.7129 -4.66895c6.22461 -3.1123 10.375 -6.74316 13.4873 -10.8936c3.1123 -4.66797 4.66895 -8.81836 4.66895 -12.4492c0 -2.0752 -0.519531 -4.15039 -2.0752 -5.70605
c-1.03809 -1.55664 -3.1123 -2.59375 -5.1875 -2.59375s-4.15039 0.518555 -5.1875 1.55566c-1.55664 1.03809 -2.59375 3.1123 -4.15039 5.70605c-2.07422 4.66895 -5.1875 8.2998 -8.2998 10.375s-7.26172 3.1123 -11.9307 3.1123
c-7.78125 0 -13.4873 -3.1123 -18.1562 -8.81836s-6.74414 -14.0059 -6.74414 -24.3809c0 -7.2627 1.03809 -12.9688 3.11328 -17.6377c1.55566 -4.66797 4.66797 -7.78027 8.2998 -10.374c3.63086 -2.59375 8.2998 -3.63184 12.9688 -3.63184
c5.1875 0 9.85547 1.55664 13.4873 4.15039c3.63086 2.59375 6.22461 6.22461 8.2998 11.4121c1.03711 2.0752 2.07422 4.15039 3.1123 5.70605c1.03711 1.55664 3.1123 2.0752 5.70605 2.0752c2.0752 0 4.15039 -0.518555 5.70605 -2.0752
c1.55664 -1.55566 2.59375 -3.63086 2.59375 -5.70605c0 -2.59375 -0.518555 -5.70605 -2.0752 -9.33691c-1.55566 -3.11328 -3.63086 -6.74414 -6.74316 -9.85645s-7.2627 -5.70605 -11.9316 -7.78125c-4.66797 -2.0752 -10.375 -3.1123 -16.5996 -3.1123
c-4.66895 0 -8.81836 0.518555 -12.9688 1.55566c-4.14941 1.03809 -7.78125 2.0752 -10.8936 4.15039s-6.22461 4.66895 -8.81836 7.78125s-4.66895 6.22461 -6.22461 9.85645c-1.55664 3.63086 -2.59375 7.26172 -3.63184 11.4121
c-0.518555 4.14941 -1.03711 8.2998 -1.03711 12.9688c0 7.26172 1.03711 14.0059 3.1123 19.7119s5.1875 10.8936 9.33789 15.0439c4.14941 4.14941 8.81836 7.26172 14.0059 9.33691zM183.116 229.609c9.33789 -8.30078 14.0068 -20.75 14.5254 -36.8311
c0 -5.70605 -0.518555 -10.375 -1.55664 -15.0439c-1.03711 -4.66895 -2.59375 -8.81836 -4.66895 -12.4492c-2.07422 -3.63184 -4.66797 -6.74414 -7.78027 -9.85645c-2.0752 -2.0752 -4.66895 -3.63086 -7.78125 -5.1875
c-3.11328 -1.03711 -6.22559 -2.0752 -9.33789 -2.59375c-3.63086 -0.518555 -7.2627 -1.03711 -11.4121 -1.03711h-23.8623c-3.63086 0 -6.22461 0.518555 -7.78125 1.55566c-1.55664 1.03809 -2.59375 2.0752 -3.1123 4.15039
c-1.03711 2.07422 -1.03711 4.14941 -1.03711 7.26172v66.918c0 4.15039 1.03711 7.2627 2.59277 8.81934c2.0752 1.55566 4.66895 2.59375 8.81934 2.59375h23.8623c6.22461 0 11.4121 -0.519531 16.0811 -1.55664c4.66797 -1.55664 8.81836 -3.63086 12.4492 -6.74316z
M169.11 165.804c6.22461 5.1875 9.33789 14.0059 9.85645 26.4561c0 8.81836 -1.55664 15.5615 -4.15039 20.2305s-5.70605 7.78125 -9.85547 8.81836c-4.15039 1.55664 -8.81934 2.0752 -14.5254 2.0752h-12.4502v-61.2119h14.0068h7.26172
c1.55664 0 3.11328 0.519531 5.1875 1.03809c1.55664 0.518555 3.11328 1.55566 4.66895 2.59375z" />
    <glyph glyph-name="040-maps-and-flags" unicode="&#xf127;" 
d="M256 448c102.244 0 185.425 -83.1816 185.427 -185.426c0 -126.889 -165.938 -313.167 -173.004 -321.035c-6.62402 -7.37793 -18.21 -7.39062 -24.8457 0c-7.06543 7.86816 -173.004 194.146 -173.004 321.035c0 102.244 83.1816 185.426 185.427 185.426zM256 -21.7285
c55.8613 66.3584 152.034 197.214 152.035 284.302c0 83.833 -68.2021 152.035 -152.035 152.035s-152.035 -68.2021 -152.035 -152.036c0 -87.084 96.1885 -217.963 152.035 -284.301zM256 355.866c51.4414 0 93.291 -41.8516 93.291 -93.293
c0 -51.4424 -41.8496 -93.293 -93.291 -93.293s-93.292 41.8506 -93.292 93.293c0 51.4414 41.8496 93.293 93.292 93.293zM256 202.672c33.0293 0 59.9004 26.8711 59.9004 59.9014c0 33.0293 -26.8711 59.9004 -59.9004 59.9004s-59.9004 -26.8711 -59.9004 -59.9004
c0 -33.0303 26.8701 -59.9014 59.9004 -59.9014z" />
    <glyph glyph-name="043-high-five" unicode="&#xf12a;" 
d="M255.987 428c5.52148 0 10 -4.47656 10 -10v-59.4932c0 -5.52246 -4.47852 -10 -10 -10c-5.52246 0 -10 4.47754 -10 10v59.4932c0 5.52344 4.47754 10 10 10zM199.324 342.619c3.90625 -3.9043 3.90918 -10.2354 0.00585938 -14.1426
c-1.95312 -1.95312 -4.5127 -2.93164 -7.07422 -2.93164c-2.55664 0 -5.11523 0.974609 -7.06738 2.92578l-23.9277 23.9053c-3.90527 3.9043 -3.90918 10.2354 -0.00585938 14.1416c3.9043 3.90723 10.2344 3.91016 14.1436 0.00683594zM350.738 366.5
c3.90527 -3.9043 3.90918 -10.2354 0.00585938 -14.1416l-25.4375 -25.457c-1.95312 -1.9541 -4.5127 -2.93262 -7.07324 -2.93262c-2.55762 0 -5.11621 0.975586 -7.06934 2.92773c-3.90625 3.90332 -3.90918 10.2344 -0.00585938 14.1416l25.4365 25.457
c3.9043 3.90625 10.2363 3.91016 14.1436 0.00488281zM446.5 164c36.1172 0 65.5 -29.3828 65.5 -65.5v-132.5c0 -5.52344 -4.47754 -10 -10 -10h-42.25c-1 0 -1.96387 0.151367 -2.875 0.423828c-0.911133 -0.272461 -1.875 -0.423828 -2.875 -0.423828h-112
c-5.52246 0 -10 4.47656 -10 10v120.895l-63.7422 94.666c-4.87109 7.2334 -8.9541 14.875 -12.2568 22.8086c-3.30273 -7.93359 -7.38672 -15.5752 -12.2568 -22.8086l-63.7432 -94.666v-7.89453c0 -5.52344 -4.47754 -10 -10 -10s-10 4.47656 -10 10v10.9473
c0 1.98828 0.59375 3.93359 1.70508 5.58496l65.4482 97.1982c11.6455 17.2969 18.1055 37.2998 18.7871 58.0674l-103.869 -103.87c-0.00683594 -0.00585938 -0.0136719 -0.00976562 -0.0205078 -0.0166016c-1.80762 -1.79785 -4.2998 -2.91113 -7.05176 -2.91113h-69.5
c-25.0889 0 -45.5 -20.4111 -45.5 -45.5v-122.5h28v113.947c0 5.52246 4.47754 10 10 10s10 -4.47754 10 -10v-113.947h92v24c0 5.52344 4.47754 10 10 10s10 -4.47656 10 -10v-34c0 -5.52344 -4.47754 -10 -10 -10h-112c-1 0 -1.96387 0.151367 -2.875 0.423828
c-0.911133 -0.272461 -1.875 -0.423828 -2.875 -0.423828h-42.25c-5.52246 0 -10 4.47656 -10 10v132.5c0 36.1172 29.3828 65.5 65.5 65.501h8.07031c-6.58594 8.58496 -10.5137 19.3105 -10.5137 30.9434v14.1123c0 28.0908 22.8535 50.9434 50.9434 50.9434
s50.9434 -22.8525 50.9453 -50.9434v-10.9707l75.2295 75.2314c4.17578 4.1748 10.3184 5.51465 15.8262 3.52441c5.50977 1.99023 11.6504 0.650391 15.8252 -3.52344l75.2305 -75.2324v10.9707c0 28.0908 22.8535 50.9434 50.9434 50.9434
s50.9434 -22.8525 50.9434 -50.9443v-14.1123c0 -11.6318 -3.92773 -22.3584 -10.5137 -30.9434h8.07031zM144.943 194.944v14.1123c0 17.0625 -13.8818 30.9434 -30.9434 30.9434s-30.9434 -13.8809 -30.9434 -30.9443v-14.1123
c0 -17.0625 13.8799 -30.9434 30.9434 -30.9434s30.9434 13.8809 30.9434 30.9443zM367.057 209.057v-14.1133c0 -17.0625 13.8799 -30.9434 30.9434 -30.9434s30.9434 13.8809 30.9434 30.9443v14.1123c0 17.0625 -13.8818 30.9434 -30.9434 30.9434
s-30.9434 -13.8809 -30.9434 -30.9434zM492 -24v122.498c0 25.0889 -20.4111 45.5 -45.5 45.5h-69.5c-2.57812 0 -4.92188 0.985352 -6.69531 2.58789c-0.120117 0.0986328 -0.244141 0.209961 -0.375977 0.341797l-103.869 103.869
c0.681641 -20.7676 7.1416 -40.7705 18.7871 -58.0684l65.4482 -97.1963c1.11133 -1.65039 1.70508 -3.5957 1.70508 -5.58496v-113.947h92v74c0 5.52344 4.47754 10 10 10s10 -4.47656 10 -10v-74h28v0zM461.069 97.0195
c1.86035 -1.86914 2.93066 -4.43945 2.93066 -7.06934s-1.07129 -5.20996 -2.93066 -7.07031s-4.43945 -2.92969 -7.06934 -2.92969s-5.20996 1.06934 -7.07031 2.92969s-2.92969 4.44043 -2.92969 7.07031s1.07031 5.20996 2.92969 7.06934
c1.86035 1.86035 4.44043 2.93066 7.07031 2.93066s5.20996 -1.07031 7.06934 -2.93066zM177.069 44.0703c1.86035 -1.86035 2.93066 -4.44043 2.93066 -7.07031s-1.07129 -5.20996 -2.93066 -7.07031c-1.85938 -1.85938 -4.43945 -2.92969 -7.06934 -2.92969
s-5.20898 1.07031 -7.07031 2.92969c-1.86035 1.86035 -2.92969 4.44043 -2.92969 7.07031s1.07031 5.20996 2.92969 7.07031c1.86035 1.85938 4.44043 2.92969 7.07031 2.92969s5.20996 -1.07031 7.06934 -2.92969z" />
    <glyph glyph-name="022-layers" unicode="&#xf115;" 
d="M511.999 191.999c0 -10.8203 -6.01172 -20.5508 -15.6904 -25.3965l-38.126 -19.0625l38.1221 -19.0615c9.6748 -4.83203 15.6904 -14.5586 15.6943 -25.3809c0.00390625 -10.8281 -6.00879 -20.5654 -15.6914 -25.4102l-215.214 -107.607
c-7.85742 -3.92383 -16.4766 -5.88672 -25.0957 -5.88672c-8.61816 0 -17.2334 1.96094 -25.0898 5.88574l-215.214 107.607c-9.68652 4.84863 -15.6982 14.584 -15.6943 25.4121c0.00390625 10.8223 6.01953 20.5488 15.6973 25.3838l38.1172 19.0596l-38.1201 19.0605
c-9.68262 4.8457 -15.6943 14.5762 -15.6943 25.3965c0 10.8213 6.01172 20.5518 15.6895 25.3965l38.125 19.0625l-38.1201 19.0605c-9.68262 4.84668 -15.6943 14.5771 -15.6943 25.3975s6.0127 20.5498 15.6914 25.3936l215.213 107.609
c15.7148 7.85059 34.4736 7.85059 50.1855 0.000976562l215.217 -107.605c9.68164 -4.84668 15.6943 -14.5781 15.6943 -25.3975c0 -10.8203 -6.01172 -20.5518 -15.6924 -25.3965c0 0 -0.00292969 -0.000976562 -0.00390625 -0.00195312l-38.1221 -19.0605
l38.1221 -19.0605c9.68262 -4.84668 15.6943 -14.5771 15.6943 -25.3984zM26.2246 276.569l215.208 -107.602c9.12012 -4.55762 20.0137 -4.55762 29.1387 0.000976562l215.204 107.601c2.33887 1.1709 2.68652 3.22559 2.68652 4.3457s-0.349609 3.1748 -2.68652 4.3457
l-215.207 107.603c-4.55957 2.27734 -9.56348 3.41699 -14.5664 3.41699c-5.00586 0 -10.0107 -1.1377 -14.5732 -3.41797l-215.208 -107.604c-2.33301 -1.16895 -2.68262 -3.22363 -2.68262 -4.34375s0.347656 -3.1748 2.68652 -4.3457zM485.782 107.426l-53.918 26.958
l-150.771 -75.3857c-7.85742 -3.92383 -16.4766 -5.8877 -25.0957 -5.8877c-8.61719 0 -17.2324 1.96094 -25.0889 5.88672l-150.775 75.3867l-53.9121 -26.9561c-2.33496 -1.16602 -2.68262 -3.21777 -2.68262 -4.33691
c-0.000976562 -1.12305 0.347656 -3.18066 2.68652 -4.35254l215.207 -107.604c9.12012 -4.55762 20.0137 -4.55664 29.1387 0.000976562l215.208 107.604c2.33496 1.16797 2.68359 3.22754 2.68262 4.35059c0 1.12109 -0.348633 3.17188 -2.67871 4.33594zM485.777 187.655
c2.33496 1.16895 2.68359 3.22461 2.68262 4.34375c0 1.12109 -0.347656 3.17578 -2.68652 4.34668l-53.9082 26.9541l-150.773 -75.3857c-7.85742 -3.92676 -16.4775 -5.88867 -25.0947 -5.88867c-8.61621 0 -17.2334 1.96094 -25.0889 5.88574l-150.775 75.3877
l-53.9121 -26.9561c-2.33496 -1.16895 -2.68262 -3.22266 -2.68262 -4.34473c0 -1.11914 0.347656 -3.1748 2.68652 -4.34473l215.207 -107.603c9.12012 -4.55762 20.0137 -4.55664 29.1387 0.000976562z" />
    <glyph glyph-name="028-chat" unicode="&#xf11b;" 
d="M436.857 372.986c48.3857 -48.3857 75.1221 -112.575 75.1221 -180.986s-26.6279 -132.601 -75.0137 -180.986c-49.3604 -49.3594 -114.957 -75.0137 -181.203 -75.0137c-41.2412 0 -82.8076 9.95898 -120.802 30.417
c-34.0967 -24.5713 -67.4365 -29.876 -90.0596 -29.876c-8.44336 0 -15.3711 0.757812 -20.2422 1.51562c-10.3916 1.62402 -18.4014 9.74219 -20.0254 20.1338c-1.62305 10.3916 3.68066 20.458 13.0977 25.1123c19.5928 9.63379 32.7988 28.9023 41.0254 45.4639
c-83.8906 100.992 -77.3955 250.695 16.1279 344.22c48.3857 48.3857 112.575 75.0137 180.986 75.0137s132.601 -26.6279 180.986 -75.0137zM416.183 31.6885c88.4365 88.4365 88.4365 232.187 -0.108398 320.623c-88.3281 88.4365 -232.187 88.4365 -320.622 0
c-84.6484 -84.6484 -88.7617 -221.037 -9.52637 -310.556c2.05664 -2.38184 3.24805 -5.30469 3.57227 -8.22656c0.757812 -3.03125 0.541016 -6.27832 -0.757812 -9.41797c-8.11816 -18.5098 -21.9736 -42.3232 -43.9473 -58.3438h0.108398
c19.0508 0 47.8447 4.7627 77.1787 27.4941c0.325195 0.325195 0.757812 0.649414 1.19043 0.866211c4.65527 4.6543 11.9072 5.73633 17.7529 2.27246c88.9775 -52.2822 202.094 -37.7773 275.159 35.2881zM237.902 192c0 9.92383 8.04492 17.9688 17.9688 17.9688
s17.9688 -8.04492 17.9688 -17.9688s-8.04492 -17.9688 -17.9688 -17.9688s-17.9688 8.04492 -17.9688 17.9688zM330.561 192c0 9.92383 8.04492 17.9688 17.9688 17.9688s17.9688 -8.04492 17.9688 -17.9688s-8.04492 -17.9688 -17.9688 -17.9688
s-17.9688 8.04492 -17.9688 17.9688zM145.244 192c0 9.92383 8.04492 17.9688 17.9688 17.9688s17.9688 -8.04492 17.9688 -17.9688s-8.04492 -17.9688 -17.9688 -17.9688s-17.9688 8.04492 -17.9688 17.9688z" />
    <glyph glyph-name="008-photo-camera" unicode="&#xf107;" 
d="M492.007 325.601c13.3291 -13.333 19.9971 -29.4209 19.9932 -48.2666v-238.936c0 -18.8467 -6.66797 -34.9365 -19.999 -48.2656c-13.3359 -13.3359 -29.4199 -20.0039 -48.2656 -20.0039h-375.469c-18.8467 0 -34.9326 6.66797 -48.2686 20.0039
c-13.332 13.3291 -19.998 29.4189 -19.998 48.2656v238.936c0 18.8457 6.66602 34.9336 19.998 48.2666c13.3359 13.332 29.4209 20 48.2686 20h59.7344l13.5996 36.2646c3.37793 8.70996 9.55371 16.2227 18.5322 22.5361c8.97949 6.31152 18.1797 9.46973 27.6025 9.46973
h136.537c9.42285 0 18.6221 -3.1582 27.6006 -9.46973c8.9834 -6.31348 15.1582 -13.8262 18.5371 -22.5361l13.5977 -36.2646h59.7334c18.8457 0 34.9307 -6.66797 48.2656 -20zM340.401 73.4619c23.3799 23.3779 35.0684 51.5127 35.0684 84.3975
c0 32.8945 -11.6895 61.0254 -35.0684 84.4023c-23.377 23.376 -51.5088 35.0664 -84.4004 35.0664c-32.8906 0 -61.0234 -11.6875 -84.4004 -35.0664c-23.375 -23.3799 -35.0664 -51.5078 -35.0664 -84.4023c0 -32.8848 11.6875 -61.0225 35.0664 -84.3975
c23.3799 -23.3779 51.5088 -35.0703 84.4004 -35.0703c32.8926 0 61.0234 11.6924 84.4004 35.0703zM256.001 234.666c21.1543 0 39.2461 -7.5127 54.2686 -22.5361c15.0225 -15.0244 22.5352 -33.1104 22.5352 -54.2705c0 -21.1543 -7.5127 -39.2422 -22.5352 -54.2656
c-15.0234 -15.0195 -33.1143 -22.5312 -54.2686 -22.5312c-21.1572 0 -39.2451 7.51172 -54.2686 22.5312c-15.0225 15.0234 -22.5342 33.1123 -22.5342 54.2656c0 21.1611 7.51172 39.2471 22.5342 54.2705c15.0234 15.0244 33.1123 22.5361 54.2686 22.5361z" />
    <glyph glyph-name="004-close" unicode="&#xf103;" 
d="M301.28 191.995l201.338 -201.327c12.5088 -12.498 12.5088 -32.7773 0 -45.2754c-6.25391 -6.25488 -14.4512 -9.38184 -22.6377 -9.38184s-16.3828 3.12695 -22.6377 9.38184l-201.338 201.338l-201.348 -201.338
c-6.25488 -6.25488 -14.4512 -9.38184 -22.6377 -9.38184s-16.3838 3.12695 -22.6377 9.37109c-12.5088 12.498 -12.5088 32.7773 0 45.2754l201.349 201.338l-201.349 201.337c-12.5088 12.498 -12.5088 32.7773 0 45.2754c12.5088 12.5088 32.7666 12.5088 45.2754 0
l201.348 -201.338l201.338 201.338c12.5088 12.5088 32.7666 12.5088 45.2754 0c12.5088 -12.498 12.5088 -32.7773 0 -45.2754z" />
    <glyph glyph-name="052-back" unicode="&#xf133;" 
d="M122.53 173.726c-9.97363 9.9502 -9.97363 26.5752 -0.0253906 36.5488l230.244 230.165c10.1025 10.0781 26.4971 10.0781 36.5996 0c10.1025 -10.1025 10.1025 -26.4707 0 -36.5488l-211.956 -211.904l211.981 -211.905c10.1035 -10.0771 10.1035 -26.4453 0 -36.5234
c-10.1279 -10.0771 -26.4971 -10.0771 -36.5996 0z" />
    <glyph glyph-name="019-smartphone-call" unicode="&#xf112;" 
d="M370.132 448c19.0176 0 34.582 -15.5498 34.582 -34.582v-442.836c0 -19.0469 -15.5645 -34.582 -34.582 -34.582h-228.264c-19.0176 0 -34.582 15.5645 -34.582 34.5967v442.821c0 19.0322 15.5645 34.582 34.582 34.582h228.264zM219.487 423.073
c-2.31152 0 -4.18359 -1.87305 -4.18359 -4.19824c0 -2.31152 1.87207 -4.18457 4.18359 -4.18457h73.0254c2.31152 0 4.18359 1.87305 4.18359 4.18457c0 2.3252 -1.87207 4.19824 -4.18359 4.19824h-73.0254zM256 -46.709c9.55273 0 17.291 7.73828 17.291 17.3057
s-7.73828 17.291 -17.291 17.291s-17.291 -7.72363 -17.291 -17.291s7.73828 -17.3057 17.291 -17.3057zM380.65 0v393.157h-249.301v-393.157h249.301z" />
    <glyph glyph-name="041-more" unicode="&#xf128;" 
d="M256 311.467c-37.6406 0 -68.2666 30.626 -68.2666 68.2666s30.626 68.2666 68.2666 68.2666s68.2666 -30.626 68.2666 -68.2666s-30.626 -68.2666 -68.2666 -68.2666zM256 72.5332c37.6406 0 68.2666 -30.626 68.2666 -68.2666s-30.626 -68.2666 -68.2666 -68.2666
s-68.2666 30.626 -68.2666 68.2666s30.626 68.2666 68.2666 68.2666zM256 260.267c37.6406 0 68.2666 -30.626 68.2666 -68.2666s-30.626 -68.2666 -68.2666 -68.2666s-68.2666 30.626 -68.2666 68.2666s30.626 68.2666 68.2666 68.2666z" />
    <glyph glyph-name="011-tick" unicode="&#xf10a;" 
d="M506.232 372.492c7.68945 -7.69043 7.68945 -20.1582 0 -27.8496l-333.134 -333.137c-7.68945 -7.68848 -20.1621 -7.68652 -27.8496 0l-139.481 139.481c-7.68945 7.69141 -7.68945 20.1592 0 27.8496c7.69141 7.69043 20.1602 7.69043 27.8496 0l125.555 -125.557
l319.211 319.212c7.69141 7.68945 20.1602 7.68945 27.8496 0z" />
    <glyph glyph-name="031-logout" unicode="&#xf11e;" 
d="M505.664 204.261c8.53223 -6.02734 8.36328 -18.626 -0.00292969 -24.5195l-54.7832 -38.6221c-9.85156 -6.94434 -23.6436 0.0478516 -23.6436 12.2598v23.6211h-263.038c-8.28418 0 -15.001 6.71484 -15.001 15s6.7168 15.001 15.001 15.001h263.04v23.6221
c0 12.1318 13.7188 19.2568 23.6445 12.2598zM430.471 95.6826c7.1709 -4.14844 9.62109 -13.3242 5.47461 -20.4961c-40.5098 -70.0264 -116.18 -116.789 -202.343 -116.789c-129.124 0 -233.603 104.489 -233.603 233.603c0 129.124 104.49 233.603 233.603 233.603
c86.126 0 161.815 -46.7295 202.342 -116.787c4.14648 -7.17188 1.69629 -16.3486 -5.47461 -20.4961c-7.16797 -4.14551 -16.3477 -1.69824 -20.4961 5.47363c-35.2148 60.876 -101.052 101.809 -176.371 101.809c-112.266 0 -203.602 -91.3359 -203.602 -203.602
s91.3359 -203.602 203.602 -203.602c75.2695 0 141.137 40.8945 176.372 101.811c4.14941 7.17188 13.3271 9.62012 20.4961 5.47363z" />
    <glyph glyph-name="056-right-arrow" unicode="&#xf137;" 
d="M344.774 366.591l161.812 -161.827c7.21875 -6.95898 7.21875 -18.5684 0 -25.543l-161.812 -161.812c-6.95801 -7.21875 -18.584 -7.21875 -25.8027 0c-6.97559 6.95898 -6.97559 18.584 0 25.8037l130.837 130.593h-431.745
c-10.0645 0 -18.0635 8.25977 -18.0635 18.3242s7.99902 18.0645 18.0635 18.0801h431.745l-130.837 130.838c-6.97559 6.95898 -6.97559 18.5674 0 25.543c7.21875 7.21875 18.8281 7.21875 25.8027 0z" />
    <glyph glyph-name="010-printer" unicode="&#xf109;" 
d="M475.88 319.003c19.915 0 36.1201 -16.2051 36.1182 -36.1211v-198.61c0 -19.916 -16.2051 -36.1211 -36.1201 -36.1211h-57.3496v-76.7871c0 -8.55176 -6.93066 -15.4805 -15.4795 -15.4805h-294.1c-8.54883 0 -15.4795 6.92871 -15.4795 15.4805v76.7871h-57.3496
c-19.915 0 -36.1201 16.2051 -36.1201 36.1211v198.61c0 19.918 16.2051 36.1211 36.1201 36.1211h57.3496v93.6338c0 8.55176 6.93066 15.4805 15.4795 15.4805h294.102c8.54883 0 15.4795 -6.92871 15.4795 -15.4805v-93.6338h57.3496zM124.43 397.157v-78.1543h263.139
v78.1543h-263.139zM387.568 -13.1572v153.572h-263.139v-153.572h263.139zM481.04 84.2715h-0.00292969v198.61c0 2.79883 -2.36328 5.16016 -5.15918 5.16016h-72.8291h-294.1h-72.8291c-2.79688 0 -5.16016 -2.36133 -5.16016 -5.16016v-198.61
c0 -2.79688 2.36328 -5.16016 5.16016 -5.16016h57.3496v76.7842c0 8.55078 6.93066 15.4795 15.4795 15.4795h294.102c8.54883 0 15.4795 -6.92871 15.4795 -15.4795v-76.7842h57.3496c2.79688 0 5.16016 2.36328 5.16016 5.16016zM381.029 229.709
c0 12.1602 9.8584 22.0186 22.0195 22.0186c12.1602 0 22.0186 -9.8584 22.0186 -22.0186c0 -12.1611 -9.8584 -22.0195 -22.0186 -22.0195c-12.1611 0 -22.0195 9.8584 -22.0195 22.0195zM326.428 109.867c8.55078 0 15.4805 -6.93066 15.4805 -15.4805
c0 -8.55078 -6.93164 -15.4795 -15.4805 -15.4795h-140.857c-8.54883 0 -15.4805 6.92871 -15.4805 15.4795c0 8.55176 6.93164 15.4805 15.4805 15.4805h140.857zM326.428 48.3574c8.55078 0 15.4805 -6.92871 15.4805 -15.4805
c0 -8.55078 -6.93164 -15.4805 -15.4805 -15.4805h-140.857c-8.54883 0 -15.4805 6.92969 -15.4805 15.4805c0 8.55176 6.93164 15.4805 15.4805 15.4805h140.857z" />
    <glyph glyph-name="012-play" unicode="&#xf10b;" 
d="M443.861 251.081c20.8682 -12.8486 33.3047 -35.1602 33.2549 -59.6787c-0.0498047 -24.5205 -12.5762 -46.7812 -33.5078 -59.5498l-218.611 -133.853c-9.40332 -5.75781 -21.6943 -2.80176 -27.4521 6.60254c-5.75781 9.40234 -2.80176 21.6934 6.60254 27.4512
l218.638 133.869c9.13867 5.57617 14.3779 14.8867 14.3994 25.5596c0.0224609 10.6738 -5.17871 20.0049 -14.2676 25.6016l-302.401 186.405c-9.37305 5.77051 -20.7188 6.01074 -30.3398 0.635742c-9.61914 -5.375 -15.3633 -15.1621 -15.3633 -26.1836v-371.112
c0 -18.3848 15.541 -30.8193 30.0557 -30.8984c4.73535 -0.000976562 10.0801 1.72656 15.5527 5.06445c9.41016 5.74316 21.6982 2.76855 27.4414 -6.64551c5.74316 -9.41113 2.76758 -21.6973 -6.64551 -27.4404c-11.7002 -7.14062 -24.2285 -10.9082 -36.251 -10.9092
c-0.102539 0 -0.208008 0.000976562 -0.3125 0.000976562c-38.4697 0.209961 -69.7705 31.9834 -69.7705 70.8291v371.112c0 25.6914 13.3906 48.5127 35.8193 61.042c22.4287 12.5303 48.8799 11.9707 70.7578 -1.49805z" />
    <glyph glyph-name="035-reply" unicode="&#xf122;" 
d="M496 -21.333c-5.75977 0 -11.1787 3.11426 -14.0371 8.34082l-0.448242 0.810547c-47.8506 86.4219 -139.029 140.182 -237.931 140.182h-30.251v-90.667c0 -6.4209 -3.86133 -12.2236 -9.77051 -14.7412c-5.86621 -2.47461 -12.7783 -1.2373 -17.3652 3.26465
l-181.333 176c-3.11523 3.00781 -4.86426 7.14648 -4.86426 11.4766c0 4.33105 1.74902 8.46973 4.86426 11.4775l181.333 176c4.6084 4.48047 11.499 5.75977 17.3652 3.26367c5.90918 -2.5166 9.77051 -8.31934 9.77051 -14.7412v-90.709
c165.185 -2.8584 298.667 -138.112 298.667 -303.957c0 -7.31738 -4.94922 -13.6963 -12.0322 -15.5098c-1.32227 -0.34082 -2.64551 -0.490234 -3.96777 -0.490234zM197.333 160h46.251c89.0879 0 172.565 -39.0186 229.632 -104.768
c-27.6055 120.938 -136.043 211.435 -265.216 211.435h-10.667c-8.83203 0 -16 7.16797 -16 16v68.8428l-142.357 -138.177l142.357 -138.176v68.8428c0 8.83203 7.16797 16 16 16z" />
    <glyph glyph-name="003-money-bag" unicode="&#xf102;" 
d="M273.244 126.643c24.6953 0 44.8135 -20.1182 44.8135 -44.8135c0 -24.4814 -19.6924 -44.4932 -44.1748 -44.8125h-0.319336h-2.12891v-18.2021c0 -7.02539 -5.74805 -12.7734 -12.7734 -12.7734s-12.7734 5.74805 -12.7734 12.7734v18.2021h-25.1211
c-7.02539 0 -12.7734 5.74805 -12.7734 12.7734s5.74805 12.7734 12.7734 12.7734h52.4775c10.6445 0 19.2666 8.62109 19.2666 19.2656s-8.62207 19.2666 -19.2666 19.2666h-29.2725c-24.6953 0 -44.8135 20.1182 -44.8135 44.8135s20.1182 44.8135 44.8135 44.8135
h1.80957v17.7764c0 7.02539 5.74805 12.7734 12.7734 12.7734s12.7734 -5.74805 12.7734 -12.7734v-17.7764h24.1631c7.02539 0 12.7734 -5.74805 12.7734 -12.7734s-5.74805 -12.7734 -12.7734 -12.7734h-51.5195c-10.6445 0 -19.2666 -8.62207 -19.2666 -19.2666
s8.62207 -19.2666 19.2666 -19.2666h29.2725zM450.581 155.596c16.8184 -38.8525 25.334 -79.4082 25.334 -120.495c0 -54.6064 -44.4941 -99.1006 -99.0996 -99.1006h-241.631c-54.6055 0 -99.0996 44.4941 -99.0996 99.1006c0 41.0869 8.51562 81.6426 25.334 120.495
c13.4121 30.8691 32.04 60.7803 55.3516 88.7754c27.7812 33.3174 55.457 55.8838 69.9336 66.6348l-58.5449 88.4551c-3.29883 5.00293 -2.66016 11.709 1.49023 15.9668c19.9053 20.4375 40.2363 30.0176 64.0801 30.0176c18.8408 0 38.3203 -5.74805 63.6543 -15.0088
c1.91602 -0.745117 3.83203 -1.06445 6.06738 -1.06445c7.34473 0 16.3926 3.83203 25.9727 7.77051c12.1348 5.10938 26.0791 10.8574 41.3008 10.8574c16.6055 0 31.5078 -6.70605 45.5586 -20.4375c4.15137 -3.93848 5.00293 -10.1123 2.3418 -15.1152l-54.2871 -100.696
c14.3701 -10.5381 42.5781 -33.3174 70.8916 -67.3799c23.418 -27.9951 41.9395 -57.9062 55.3516 -88.7754zM155.409 404.783l55.6709 -84.0918h88.9883l51.0938 94.9492c-8.72852 6.17383 -15.6475 7.02539 -20.5439 7.02539
c-10.1123 0 -20.5439 -4.36426 -31.5078 -8.94141c-11.3896 -4.79004 -23.3115 -9.68652 -35.7656 -9.68652c-5.10938 0 -10.1123 0.851562 -14.7959 2.55469c-22.6729 8.40918 -39.7041 13.5186 -54.8193 13.5186c-14.1572 0 -25.9727 -4.68359 -38.3203 -15.3281z
M376.815 -38.4531c40.5547 0 73.5527 32.998 73.3398 73.5537c0 68.3369 -24.9082 132.949 -74.1914 192.346c-31.082 37.5752 -62.5898 60.9932 -72.2764 67.6992h-95.5879c-9.58008 -6.8125 -41.1943 -30.124 -72.2764 -67.6992
c-49.1768 -59.3965 -74.1914 -124.115 -74.1914 -192.346c0 -40.5557 32.998 -73.5537 73.5527 -73.5537h241.631z" />
    <glyph glyph-name="066-login" unicode="&#xf141;" 
d="M192 234.66c-58.8164 0 -106.668 47.8477 -106.668 106.664s47.8516 106.668 106.668 106.668s106.668 -47.8516 106.668 -106.668s-47.8516 -106.664 -106.668 -106.664zM192 415.992c-41.1719 0 -74.668 -33.4922 -74.668 -74.668
c0 -41.1719 33.4961 -74.6641 74.668 -74.6641s74.668 33.4922 74.668 74.6641c0 41.1758 -33.4961 74.668 -74.668 74.668zM192 415.992zM368 -0.0078125h-352c-8.83203 0 -16 7.16797 -16 16v74.668c0 55.8711 45.4609 101.332 101.332 101.332h181.336
c55.8711 0 101.332 -45.4609 101.332 -101.332v-74.668c0 -8.83203 -7.16797 -16 -16 -16zM32 31.9922h320v58.668c0 38.2266 -31.1055 69.332 -69.332 69.332h-181.336c-38.2266 0 -69.332 -31.1055 -69.332 -69.332v-58.668zM32 31.9922zM496 229.324h-181.332
c-8.83203 0 -16 7.16797 -16 16s7.16797 16 16 16h181.332c8.83203 0 16 -7.16797 16 -16s-7.16797 -16 -16 -16zM496 229.324zM410.668 143.992c-4.09766 0 -8.19141 1.55859 -11.3086 4.69141c-6.25 6.25391 -6.25 16.3867 0 22.6367l74.0273 74.0273l-74.0273 74.0273
c-6.25 6.25 -6.25 16.3828 0 22.6328s16.3828 6.25 22.6367 0l85.332 -85.332c6.25 -6.25 6.25 -16.3867 0 -22.6367l-85.332 -85.332c-3.13672 -3.15625 -7.23438 -4.71484 -11.3281 -4.71484zM410.668 143.992z" />
    </font>
</defs>
</svg>
